魔星字幕团[MagicStar] 总之就是想在结婚申请书上盖章 / 婚姻届に判を捺しただけですが EP05 [WEBDL] [720p] [PARAVI]【生】

  • 所属分类:
    日剧
  • 发布时间: 2021/12/02 20:11
  • 种子下载: 下载种子/磁力链接
  • 文件大小: 185.1MB

簡介: 

HD 720p from Paravi.
alt text
alt text

General Unique ID                      : 76000689356483330560471149673982272142 (0x392D3349A69C4087485A0B70A1C1228E) Complete name                  : Tonikaku.Konin.Todoke.ni.Han.wo.Oshitai.dake.desu.ga.EP05.720p.PARAVI.WEB-DL.AAC2.0.H.264-MagicStar.mkv Format                         : Matroska Format version                 : Version 4 File size                      : 185 MiB Duration                       : 10 min 33 s Overall bit rate               : 2 452 kb/s Encoded date                   : UTC 2021-11-30 14:17:12 Writing application            : mkvmerge v50.0.0 ('Awakenings') 64-bit Writing library                : libebml v1.4.0   libmatroska v1.6.2 Cover                          : Yes Attachments                    : cover.png  Video ID                             : 1 Format                         : AVC Format/Info                    : Advanced Video Codec Format profile                 : [email protected] Format settings                : CABAC / 4 Ref Frames Format settings, CABAC         : Yes Format settings, Reference fra : 4 frames Codec ID                       : V_MPEG4/ISO/AVC Duration                       : 10 min 33 s Bit rate                       : 2 313 kb/s Width                          : 1 280 pixels Height                         : 720 pixels Display aspect ratio           : 16:9 Frame rate mode                : Constant Frame rate                     : 29.970 (29970/1000) FPS Original frame rate            : 29.970 (30000/1001) FPS Color space                    : YUV Chroma subsampling             : 4:2:0 Bit depth                      : 8 bits Scan type                      : Progressive Bits/(Pixel*Frame)             : 0.084 Stream size                    : 175 MiB (94%) Default                        : Yes Forced                         : No Color range                    : Limited Color primaries                : BT.709 Transfer characteristics       : BT.709 Matrix coefficients            : BT.709  Audio ID                             : 2 Format                         : AAC LC Format/Info                    : Advanced Audio Codec Low Complexity Codec ID                       : A_AAC-2 Duration                       : 10 min 33 s Bit rate                       : 125 kb/s Channel(s)                     : 2 channels Channel layout                 : L R Sampling rate                  : 48.0 kHz Frame rate                     : 46.875 FPS (1024 SPF) Compression mode               : Lossy Stream size                    : 9.46 MiB (5%) Language                       : Japanese Default                        : Yes Forced                         : No

  • BT列表

BT链接信息: [MagicStar] 总之就是想在结婚申请书上盖章 / 婚姻届に判を捺しただけですが EP05 [WEBDL] [720p] [PARAVI]【生】

Magnet链接: magnet:?xt=urn:btih:NOVLP2VDMLIROSVMX2CF5OWGKX3WE4VR

Magnet链接typeII: magnet:?xt=urn:btih:6baab7eaa362d1174aacbe845ebac655f76272b1

PikPak載點: 保存至pikpak ?

弹幕播放链接: ddplay:magnet:?xt=urn:btih:NOVLP2VDMLIROSVMX2CF5OWGKX3WE4VR 

提供最优质的资源集合

立即查看 了解详情