魔星字幕团[MagicStar] 前科者 -新人保护司・阿川佳代- / 前科者 -新米保護司・阿川佳代- EP01 [WEBDL] [1080p] [AMZN]【生】【附日字】

  • 所属分类:
    日剧
  • 发布时间: 2021/11/28 14:51
  • 种子下载: 下载种子/磁力链接
  • 文件大小: 1.3GB

簡介: 

HD 1080p from Prime Video.
Japanese subtitles added.
alt text
alt text

General Unique ID                      : 98500650358761468664845225057782011404 (0x4A1A89034F57EAB6E815B369ED3B160C) Complete name                  : Zenkamono.Shinmai.Hogoshi.Agawa.Kayo.EP01.1080p.AMZN.WEB-DL.DDP2.0.H.264-MagicStar.mkv Format                         : Matroska Format version                 : Version 4 File size                      : 1.30 GiB Duration                       : 25 min 26 s Overall bit rate               : 7 324 kb/s Encoded date                   : UTC 2021-11-20 22:57:29 Writing application            : mkvmerge v50.0.0 ('Awakenings') 64-bit Writing library                : libebml v1.4.0   libmatroska v1.6.2 Cover                          : Yes Attachments                    : cover.png  Video ID                             : 1 Format                         : AVC Format/Info                    : Advanced Video Codec Format profile                 : [email protected] Format settings                : CABAC / 4 Ref Frames Format settings, CABAC         : Yes Format settings, Reference fra : 4 frames Codec ID                       : V_MPEG4/ISO/AVC Duration                       : 25 min 26 s Bit rate                       : 7 096 kb/s Width                          : 1 920 pixels Height                         : 1 080 pixels Display aspect ratio           : 16:9 Frame rate mode                : Constant Frame rate                     : 23.976 (24000/1001) FPS Color space                    : YUV Chroma subsampling             : 4:2:0 Bit depth                      : 8 bits Scan type                      : Progressive Bits/(Pixel*Frame)             : 0.143 Stream size                    : 1.26 GiB (97%) Default                        : Yes Forced                         : No Color range                    : Limited Color primaries                : BT.709 Transfer characteristics       : BT.709 Matrix coefficients            : BT.709  Audio ID                             : 2 Format                         : E-AC-3 Format/Info                    : Enhanced AC-3 Commercial name                : Dolby Digital Plus Codec ID                       : A_EAC3 Duration                       : 25 min 26 s Bit rate mode                  : Constant Bit rate                       : 224 kb/s Channel(s)                     : 2 channels Channel layout                 : L R Sampling rate                  : 48.0 kHz Frame rate                     : 31.250 FPS (1536 SPF) Compression mode               : Lossy Stream size                    : 40.8 MiB (3%) Language                       : Japanese Service kind                   : Complete Main Default                        : Yes Forced                         : No

  • BT列表

BT链接信息: [MagicStar] 前科者 -新人保护司・阿川佳代- / 前科者 -新米保護司・阿川佳代- EP01 [WEBDL] [1080p] [AMZN]【生】【附日字】

Magnet链接: magnet:?xt=urn:btih:EGXMF3GKRODMGZ454JR3EQQTVMYFZSOQ

Magnet链接typeII: magnet:?xt=urn:btih:21aec2ecca8b86c3679de263b24213ab305cc9d0

PikPak載點: 保存至pikpak ?

弹幕播放链接: ddplay:magnet:?xt=urn:btih:EGXMF3GKRODMGZ454JR3EQQTVMYFZSOQ 

提供最优质的资源集合

立即查看 了解详情