魔星字幕团[MagicStar] 非主角的女友 / じゃない方の彼女 EP06 [WEBDL] [720p] [PARAVI]【生】【附日字】

  • 所属分类:
    日剧
  • 发布时间: 2021/11/28 14:17
  • 种子下载: 下载种子/磁力链接
  • 文件大小: 662.2MB

簡介: 

HD 720p from Paravi.
Japanese subtitles added.
alt text
alt text

General Unique ID                      : 188707478503726759824659959244509912352 (0x8DF7BD0507E200E8046786AD737F9D20) Complete name                  : Janai.Hou.no.Kanojo.EP06.720p.PARAVI.WEB-DL.AAC2.0.H.264-MagicStar.mkv Format                         : Matroska Format version                 : Version 4 File size                      : 662 MiB Duration                       : 38 min 11 s Overall bit rate               : 2 423 kb/s Encoded date                   : UTC 2021-11-26 11:32:41 Writing application            : mkvmerge v50.0.0 ('Awakenings') 64-bit Writing library                : libebml v1.4.0   libmatroska v1.6.2 Cover                          : Yes Attachments                    : cover.png  Video ID                             : 1 Format                         : AVC Format/Info                    : Advanced Video Codec Format profile                 : [email protected] Format settings                : CABAC / 4 Ref Frames Format settings, CABAC         : Yes Format settings, Reference fra : 4 frames Codec ID                       : V_MPEG4/ISO/AVC Duration                       : 38 min 11 s Bit rate                       : 2 293 kb/s Width                          : 1 280 pixels Height                         : 720 pixels Display aspect ratio           : 16:9 Frame rate mode                : Constant Frame rate                     : 29.970 (29970/1000) FPS Original frame rate            : 29.970 (30000/1001) FPS Color space                    : YUV Chroma subsampling             : 4:2:0 Bit depth                      : 8 bits Scan type                      : Progressive Bits/(Pixel*Frame)             : 0.083 Stream size                    : 626 MiB (95%) Default                        : Yes Forced                         : No Color range                    : Limited Color primaries                : BT.709 Transfer characteristics       : BT.709 Matrix coefficients            : BT.709  Audio ID                             : 2 Format                         : AAC LC Format/Info                    : Advanced Audio Codec Low Complexity Codec ID                       : A_AAC-2 Duration                       : 38 min 11 s Bit rate                       : 125 kb/s Channel(s)                     : 2 channels Channel layout                 : L R Sampling rate                  : 48.0 kHz Frame rate                     : 46.875 FPS (1024 SPF) Compression mode               : Lossy Stream size                    : 34.3 MiB (5%) Language                       : Japanese Default                        : Yes Forced                         : No

  • BT列表

BT链接信息: [MagicStar] 非主角的女友 / じゃない方の彼女 EP06 [WEBDL] [720p] [PARAVI]【生】【附日字】

Magnet链接: magnet:?xt=urn:btih:RCFRVDC3L733NOHV2WGXQPMOHBOB2J2R

Magnet链接typeII: magnet:?xt=urn:btih:888b1a8c5b5ff7b6b8f5d58d783d8e385c1d2751

PikPak載點: 保存至pikpak ?

弹幕播放链接: ddplay:magnet:?xt=urn:btih:RCFRVDC3L733NOHV2WGXQPMOHBOB2J2R 

提供最优质的资源集合

立即查看 了解详情