魔星字幕团[MagicStar] 这是恋爱! ~不良少年与白手杖女孩~ / 恋です! ~ヤンキー君と白杖ガール~ EP06 [WEBDL] [1080p] [HULU]【生】【附日字】

  • 所属分类:
    日剧
  • 发布时间: 2021/11/24 2:20
  • 种子下载: 下载种子/磁力链接
  • 文件大小: 1.4GB

簡介: 

HD 1080p from HULU JAPAN.
alt text
alt text

General Unique ID                      : 188799411404760827096431316348284695889 (0x8E0971A9601123E2AC7DE622C9B3F551) Complete name                  : Koi.Desu.Yankee.kun.to.Hakujou.Girl.EP06.1080p.HULU.WEB-DL.AAC2.0.H.264-MagicStar.mkv Format                         : Matroska Format version                 : Version 2 File size                      : 1.44 GiB Duration                       : 51 min 16 s Overall bit rate               : 4 032 kb/s Encoded date                   : UTC 2021-11-14 23:58:39 Writing application            : mkvmerge v8.5.2 ('Crosses') 32bit Writing library                : libebml v1.3.3   libmatroska v1.4.4  Video ID                             : 1 Format                         : AVC Format/Info                    : Advanced Video Codec Format profile                 : [email protected] Format settings                : CABAC / 4 Ref Frames Format settings, CABAC         : Yes Format settings, Reference fra : 4 frames Codec ID                       : V_MPEG4/ISO/AVC Duration                       : 51 min 16 s Bit rate                       : 3 904 kb/s Width                          : 1 920 pixels Height                         : 1 080 pixels Display aspect ratio           : 16:9 Frame rate mode                : Constant Frame rate                     : 29.970 (30000/1001) FPS Color space                    : YUV Chroma subsampling             : 4:2:0 Bit depth                      : 8 bits Scan type                      : Progressive Bits/(Pixel*Frame)             : 0.063 Stream size                    : 1.40 GiB (97%) Writing library                : x264 core 148 r2638 7599210 Encoding settings              : cabac=1 / ref=3 / deblock=1:0:0 / analyse=0x3:0x113 / me=umh / subme=8 / psy=1 / psy_rd=1.00:0.00 / mixed_ref=0 / me_range=16 / chroma_me=1 / trellis=2 / 8x8dct=1 / cqm=0 / deadzone=21,11 / fast_pskip=1 / chroma_qp_offset=-2 / threads=24 / lookahead_threads=4 / sliced_threads=0 / nr=0 / decimate=1 / interlaced=0 / bluray_compat=0 / constrained_intra=0 / bframes=3 / b_pyramid=2 / b_adapt=2 / b_bias=0 / direct=3 / weightb=1 / open_gop=0 / weightp=2 / keyint=300 / keyint_min=29 / scenecut=40 / intra_refresh=0 / rc_lookahead=40 / rc=crf / mbtree=1 / crf=21.0 / qcomp=0.60 / qpmin=0 / qpmax=69 / qpstep=4 / ip_ratio=1.40 / aq=1:1.00 Default                        : Yes Forced                         : No  Audio ID                             : 2 Format                         : AAC LC Format/Info                    : Advanced Audio Codec Low Complexity Codec ID                       : A_AAC-2 Duration                       : 51 min 16 s Bit rate                       : 125 kb/s Channel(s)                     : 2 channels Channel layout                 : L R Sampling rate                  : 48.0 kHz Frame rate                     : 46.875 FPS (1024 SPF) Compression mode               : Lossy Stream size                    : 46.0 MiB (3%) Language                       : Japanese Default                        : Yes Forced                         : No

  • BT列表

BT链接信息: [MagicStar] 这是恋爱! ~不良少年与白手杖女孩~ / 恋です! ~ヤンキー君と白杖ガール~ EP06 [WEBDL] [1080p] [HULU]【生】【附日字】

Magnet链接: magnet:?xt=urn:btih:TEVV3UXTJOAWZND7RJVVYMLHZ7FPPEPU

Magnet链接typeII: magnet:?xt=urn:btih:992b5dd2f34b816cb47f8a6b5c3167cfcaf791f4

PikPak載點: 保存至pikpak ?

弹幕播放链接: ddplay:magnet:?xt=urn:btih:TEVV3UXTJOAWZND7RJVVYMLHZ7FPPEPU 

提供最优质的资源集合

立即查看 了解详情