魔星字幕团[MagicStar] 真凶标签 / 真犯人フラグ EP06 [WEBDL] [1080p] [HULU]【生】【附日字】

  • 所属分类:
    日剧
  • 发布时间: 2021/11/24 1:23
  • 种子下载: 下载种子/磁力链接
  • 文件大小: 1.3GB

簡介: 

HD 1080p from HULU JAPAN.
alt text
alt text

General Unique ID                      : 44663646013743369552900443153920368037 (0x2199E7C39913D548EC5A35677D1B1DA5) Complete name                  : Shinhannin.Flag.EP06.1080p.HULU.WEB-DL.AAC2.0.H.264-MagicStar.mkv Format                         : Matroska Format version                 : Version 4 File size                      : 1.31 GiB Duration                       : 46 min 16 s Overall bit rate               : 4 065 kb/s Encoded date                   : UTC 2021-11-23 07:00:13 Writing application            : mkvmerge v50.0.0 ('Awakenings') 64-bit Writing library                : libebml v1.4.0   libmatroska v1.6.2 Cover                          : Yes Attachments                    : cover.png  Video ID                             : 1 Format                         : AVC Format/Info                    : Advanced Video Codec Format profile                 : [email protected] Format settings                : CABAC / 4 Ref Frames Format settings, CABAC         : Yes Format settings, Reference fra : 4 frames Codec ID                       : V_MPEG4/ISO/AVC Duration                       : 46 min 16 s Bit rate                       : 3 936 kb/s Width                          : 1 920 pixels Height                         : 1 080 pixels Display aspect ratio           : 16:9 Frame rate mode                : Constant Frame rate                     : 29.970 (29970/1000) FPS Original frame rate            : 29.970 (30000/1001) FPS Color space                    : YUV Chroma subsampling             : 4:2:0 Bit depth                      : 8 bits Scan type                      : Progressive Bits/(Pixel*Frame)             : 0.063 Stream size                    : 1.27 GiB (97%) Default                        : Yes Forced                         : No Color range                    : Limited Color primaries                : BT.709 Transfer characteristics       : BT.709 Matrix coefficients            : BT.709  Audio ID                             : 2 Format                         : AAC LC Format/Info                    : Advanced Audio Codec Low Complexity Codec ID                       : A_AAC-2 Duration                       : 46 min 16 s Bit rate                       : 125 kb/s Channel(s)                     : 2 channels Channel layout                 : L R Sampling rate                  : 48.0 kHz Frame rate                     : 46.875 FPS (1024 SPF) Compression mode               : Lossy Stream size                    : 41.5 MiB (3%) Language                       : Japanese Default                        : Yes Forced                         : No

  • BT列表

BT链接信息: [MagicStar] 真凶标签 / 真犯人フラグ EP06 [WEBDL] [1080p] [HULU]【生】【附日字】

Magnet链接: magnet:?xt=urn:btih:VP3CZQWEQ3TZ6F4TWQLR3FQVF2HJUTZQ

Magnet链接typeII: magnet:?xt=urn:btih:abf62cc2c486e79f1793b4171d96152e8e9a4f30

PikPak載點: 保存至pikpak ?

弹幕播放链接: ddplay:magnet:?xt=urn:btih:VP3CZQWEQ3TZ6F4TWQLR3FQVF2HJUTZQ 

提供最优质的资源集合

立即查看 了解详情