魔星字幕团【日影】[MagicStar] 阴阳师II / 陰陽師II 2003 [WEBDL] [1080p] [AMZN]【生】

  • 所属分类:
    日剧
  • 发布时间: 2021/11/21 11:21
  • 种子下载: 下载种子/磁力链接
  • 文件大小: 6.6GB

簡介: 

HD 1080p from Prime Video. Blu-ray Disc not released.
alt text
alt text

General Unique ID                      : 240107334998458177446128308503147736574 (0xB4A2FD9A3183A7CCE2CA6D13E6A06DFE) Complete name                  : Onmyouji.II.2003.1080p.AMZN.WEB-DL.DDP2.0.H.264-MagicStar.mkv Format                         : Matroska Format version                 : Version 4 File size                      : 6.58 GiB Duration                       : 1 h 52 min Overall bit rate               : 8 356 kb/s Encoded date                   : UTC 2021-11-21 00:02:16 Writing application            : mkvmerge v50.0.0 ('Awakenings') 64-bit Writing library                : libebml v1.4.0   libmatroska v1.6.2 Cover                          : Yes Attachments                    : cover.png  Video ID                             : 1 Format                         : AVC Format/Info                    : Advanced Video Codec Format profile                 : [email protected] Format settings                : CABAC / 4 Ref Frames Format settings, CABAC         : Yes Format settings, Reference fra : 4 frames Codec ID                       : V_MPEG4/ISO/AVC Duration                       : 1 h 52 min Bit rate                       : 8 130 kb/s Width                          : 1 920 pixels Height                         : 1 040 pixels Display aspect ratio           : 1.85:1 Frame rate mode                : Constant Frame rate                     : 23.976 (24000/1001) FPS Color space                    : YUV Chroma subsampling             : 4:2:0 Bit depth                      : 8 bits Scan type                      : Progressive Bits/(Pixel*Frame)             : 0.170 Stream size                    : 6.40 GiB (97%) Default                        : Yes Forced                         : No Color range                    : Limited Color primaries                : BT.709 Transfer characteristics       : BT.709 Matrix coefficients            : BT.709  Audio ID                             : 2 Format                         : E-AC-3 Format/Info                    : Enhanced AC-3 Commercial name                : Dolby Digital Plus Codec ID                       : A_EAC3 Duration                       : 1 h 52 min Bit rate mode                  : Constant Bit rate                       : 224 kb/s Channel(s)                     : 2 channels Channel layout                 : L R Sampling rate                  : 48.0 kHz Frame rate                     : 31.250 FPS (1536 SPF) Compression mode               : Lossy Stream size                    : 180 MiB (3%) Language                       : Japanese Service kind                   : Complete Main Default                        : Yes Forced                         : No

  • BT列表

BT链接信息: 【日影】[MagicStar] 阴阳师II / 陰陽師II 2003 [WEBDL] [1080p] [AMZN]【生】

Magnet链接: magnet:?xt=urn:btih:Y6XQSX5FFDANUQNAZH6MK42FFE5B7XVX

Magnet链接typeII: magnet:?xt=urn:btih:c7af095fa528c0da41a0c9fcc57345293a1fdeb7

PikPak載點: 保存至pikpak ?

弹幕播放链接: ddplay:magnet:?xt=urn:btih:Y6XQSX5FFDANUQNAZH6MK42FFE5B7XVX 

提供最优质的资源集合

立即查看 了解详情