LoliHouse[千夏字幕组&LoliHouse] 某科学的超电磁炮T / Toaru Kagaku no Railgun T [BDRip 1080p HEVC-10bit FLAC][Fin]

  • 所属分类:
    动漫 >  季度全集
  • 发布时间: 2021/11/17 3:40
  • 修改时间: 2021/11/17 3:58
  • 种子下载: 下载种子/磁力链接
  • 文件大小: 39.8GB

簡介: 

某科学的Mental Out超电磁炮T千夏字幕组 合作,感谢他们精心制作的字幕。
This project is a collaboration of Airota and LoliHouse and we would like to thank Airota for their Chinese subtitles.

原盘质量极好因此我们只进行了较弱的去色带、自适应降噪,以及用于补偿编码器的涂抹的纹理增强。
The source BD quality is very high, so we only did some mild debanding and adaptive denoising. To counter the blurring effect of x265, we also judiciously applied some texture enhancement.

10-bit 1080p HEVC FLAC AAC,MKV 格式。每话约 1.4 GB,内封评论音轨。
Encoded as 10-bit 1080p HEVC FLAC AAC in MKV container. Each episode is around 1.4 GB, with commentary audio track included where available.

字幕 / Subtitle:千夏字幕组 / Airota
脚本&压制 / Scripter&Encoder:██████

Screenshots Comparison (also available as https://slow.pics/c/swjgjj05):

Source Encode
Railgun T 7731 Railgun T 7731v
Railgun T 17432 Railgun T 17432v
Railgun T 17473 Railgun T 17473v
Railgun T 18975 Railgun T 18975v
Railgun T 27503 Railgun T 27503v
Railgun T 33371 Railgun T 33371v
MediaInfo
General
Complete name             : [Airota&LoliHouse] Toaru Kagaku no Railgun T - 01 [BDRip 1080p HEVC-10bit FLAC AAC].mkv
Format                    : Matroska
Format version            : Version 4
File size                 : 1.29 GiB
Duration                  : 23 min 42 s
Overall bit rate mode     : Variable
Overall bit rate          : 7 808 kb/s
Movie name                : 超能力者(レベル5)
Track name/Position       : 1
Track name/Total          : 25
Encoded date              : UTC 2021-10-06 01:30:31
Writing application       : mkvmerge v48.0.0 ('Fortress Around Your Heart') 64-bit
Writing library           : libebml v1.4.0   libmatroska v1.6.0
Video
ID                        : 1
Format                    : HEVC
Format/Info               : High Efficiency Video Coding
Format profile            : Main [email protected]@High
Codec ID                  : V_MPEGH/ISO/HEVC
Duration                  : 23 min 42 s
Bit rate                  : 6 150 kb/s
Width                     : 1 920 pixels
Height                    : 1 080 pixels
Display aspect ratio      : 16:9
Frame rate mode           : Constant
Frame rate                : 23.976 (24000/1001) FPS
Color space               : YUV
Chroma subsampling        : 4:2:0
Bit depth                 : 10 bits
Bits/(Pixel*Frame)        : 0.124
Stream size               : 1.02 GiB (79%)
Writing library           : x265 3.5g2b25c9ba0 45:[Windows][GCC 10.2.0][64 bit] Yuuki 10bit
Encoding settings         : rc=crf / crf=14.5000 / qcomp=0.65 / qpstep=4 / stats-write=0 / stats-read=0 / vbv-maxrate=38000 / vbv-bufsize=40000 / vbv-init=0.9 / min-vbv-fullness=50.0 / max-vbv-fullness=80.0 / crf-max=0.0 / crf-min=0.0 / no-lossless / no-cu-lossless / aq-mode=3 / aq-strength=0.80 / cbqpoffs=-2 / crqpoffs=-2 / ipratio=1.30 / pbratio=1.20 / psy-rd=2.50 / psy-rdoq=0.50 / deblock=-1:-1 / ref=4 / limit-refs=0 / no-limit-modes / bframes=8 / b-adapt=2 / bframe-bias=0 / b-pyramid / b-intra / weightp / weightb / min-keyint=1 / max-keyint=240 / rc-lookahead=80 / gop-lookahead=0 / scenecut=40 / hist-scenecut=0 / radl=0 / max-cu-size=32 / min-cu-size=8 / me=3 / subme=5 / merange=38 / rdoq-level=1 / rd=5 / rdpenalty=0 / dynamic-rd=0.00 / rd-refine / ----- / cutree / no-sao / no-rect / no-amp / no-open-gop / wpp / no-pmode / no-pme / no-psnr / no-ssim / nr-intra=0 / nr-inter=0 / no-constrained-intra / no-strong-intra-smoothing / max-tu-size=16 / tu-inter-depth=4 / tu-intra-depth=4 / limit-tu=0 / qg-size=8 / qpmax=69 / qpmin=0 / ----- / cpuid=1111039 / frame-threads=1 / numa-pools=  / log-level=2 / input-csp=1 / input-res=1920x1080 / interlace=0 / level-idc=0 / high-tier=1 / uhd-bd=0 / no-allow-non-conformance / no-repeat-headers / no-aud / no-hrd / info / hash=0 / no-temporal-layers / lookahead-slices=0 / no-splice / no-intra-refresh / no-ssim-rd / signhide / tskip / max-merge=5 / temporal-mvp / no-frame-dup / no-hme / no-analyze-src-pics / no-sao-non-deblock / selective-sao=0 / no-early-skip / rskip / no-fast-intra / no-tskip-fast / no-splitrd-skip / zone-count=0 / no-strict-cbr / no-rc-grain / no-const-vbv / sar=0 / overscan=0 / videoformat=5 / range=0 / colorprim=1 / transfer=1 / colormatrix=1 / chromaloc=0 / display-window=0 / cll=0,0 / min-luma=0 / max-luma=1023 / log2-max-poc-lsb=8 / vui-timing-info / vui-hrd-info / slices=1 / no-opt-qp-pps / no-opt-ref-list-length-pps / no-multi-pass-opt-rps / scenecut-bias=0.05 / hist-threshold=0.03 / no-opt-cu-delta-qp / no-aq-motion / no-hdr10 / no-hdr10-opt / no-dhdr10-opt / no-idr-recovery-sei / analysis-reuse-level=0 / analysis-save-reuse-level=0 / analysis-load-reuse-level=0 / scale-factor=0 / refine-intra=0 / refine-inter=0 / refine-mv=1 / refine-ctu-distortion=0 / no-limit-sao / ctu-info=0 / no-lowpass-dct / refine-analysis-type=0 / copy-pic=1 / max-ausize-factor=1.0 / no-dynamic-refine / no-single-sei / no-hevc-aq / no-svt / no-field / qp-adaptation-range=1.00 / scenecut-aware-qp=0conformance-window-offsets / right=0 / bottom=0 / decoder-max-rate=0 / no-vbv-live-multi-pass
Default                   : Yes
Forced                    : No
Color range               : Limited
Color primaries           : BT.709
Transfer characteristics  : BT.709
Matrix coefficients       : BT.709
Audio #1
ID                        : 2
Format                    : FLAC
Format/Info               : Free Lossless Audio Codec
Codec ID                  : A_FLAC
Duration                  : 23 min 42 s
Bit rate mode             : Variable
Bit rate                  : 1 471 kb/s
Channel(s)                : 2 channels
Channel layout            : L R
Sampling rate             : 48.0 kHz
Frame rate                : 11.719 FPS (4096 SPF)
Bit depth                 : 24 bits
Compression mode          : Lossless
Stream size               : 249 MiB (19%)
Writing library           : libFLAC 1.3.2 (UTC 2017-01-01)
Language                  : Japanese
Default                   : Yes
Forced                    : No
Audio #2
ID                        : 3
Format                    : AAC LC
Format/Info               : Advanced Audio Codec Low Complexity
Codec ID                  : A_AAC-2
Duration                  : 23 min 42 s
Bit rate                  : 185 kb/s
Channel(s)                : 2 channels
Channel layout            : L R
Sampling rate             : 48.0 kHz
Frame rate                : 46.875 FPS (1024 SPF)
Compression mode          : Lossy
Stream size               : 31.3 MiB (2%)
Language                  : Japanese
Default                   : No
Forced                    : No
Menu
00:00:00.000              : ja:アバン
00:04:19.009              : ja:Aパート
00:09:54.010              : ja:Bパート
00:21:55.606              : ja:ED
00:23:26.030              : ja:次回予告

为了顺利地观看我们的作品,推荐大家使用以下播放器:Suggested Media Players for the best viewing experience:

Windows:MPC-BE

macOS:IINA

iOS:nPlayer

Android:MX Player

点击查看LoliHouse三周年礼包 (其一)

点击查看LoliHouse三周年纪念公告

  • BT列表

BT链接信息: [千夏字幕组&LoliHouse] 某科学的超电磁炮T / Toaru Kagaku no Railgun T [BDRip 1080p HEVC-10bit FLAC][Fin]

Magnet链接: magnet:?xt=urn:btih:LRW3IADZEPHVCGW7VHXRCS7JEVP55MRH

Magnet链接typeII: magnet:?xt=urn:btih:5c6db4007923cf511adfa9ef114be9255fdeb227

PikPak載點: 保存至pikpak ?

弹幕播放链接: ddplay:magnet:?xt=urn:btih:LRW3IADZEPHVCGW7VHXRCS7JEVP55MRH 

提供最优质的资源集合

立即查看 了解详情