魔星字幕团[MagicStar] 特利迦奥特曼 / ウルトラマントリガー EP16 [WEBDL] [1080p] [HULU]【生】【附日字】

  • 所属分类:
    特摄
  • 发布时间: 2021/11/13 16:39
  • 种子下载: 下载种子/磁力链接
  • 文件大小: 707.3MB

簡介: 

HD 1080p from HULU JAPAN.
alt text
alt text

General Unique ID                      : 169854542092684678165023309423118131795 (0x7FC8CB7D4C54EF6EFF45D74F88142253) Complete name                  : Ultraman.Trigger.EP16.1080p.HULU.WEB-DL.AAC2.0.H.264-MagicStar.mkv Format                         : Matroska Format version                 : Version 4 File size                      : 707 MiB Duration                       : 24 min 37 s Overall bit rate               : 4 017 kb/s Encoded date                   : UTC 2021-11-12 23:48:36 Writing application            : mkvmerge v50.0.0 ('Awakenings') 64-bit Writing library                : libebml v1.4.0   libmatroska v1.6.2 Cover                          : Yes Attachments                    : cover.png  Video ID                             : 1 Format                         : AVC Format/Info                    : Advanced Video Codec Format profile                 : [email protected] Format settings                : CABAC / 4 Ref Frames Format settings, CABAC         : Yes Format settings, Reference fra : 4 frames Codec ID                       : V_MPEG4/ISO/AVC Duration                       : 24 min 36 s Bit rate                       : 3 889 kb/s Width                          : 1 920 pixels Height                         : 1 080 pixels Display aspect ratio           : 16:9 Frame rate mode                : Constant Frame rate                     : 23.976 (24000/1001) FPS Color space                    : YUV Chroma subsampling             : 4:2:0 Bit depth                      : 8 bits Scan type                      : Progressive Bits/(Pixel*Frame)             : 0.078 Stream size                    : 685 MiB (97%) Default                        : Yes Forced                         : No Color range                    : Limited Color primaries                : BT.709 Transfer characteristics       : BT.709 Matrix coefficients            : BT.709  Audio ID                             : 2 Format                         : AAC LC Format/Info                    : Advanced Audio Codec Low Complexity Codec ID                       : A_AAC-2 Duration                       : 24 min 37 s Bit rate                       : 125 kb/s Channel(s)                     : 2 channels Channel layout                 : L R Sampling rate                  : 48.0 kHz Frame rate                     : 46.875 FPS (1024 SPF) Compression mode               : Lossy Stream size                    : 22.1 MiB (3%) Language                       : Japanese Default                        : Yes Forced                         : No

  • BT列表

BT链接信息: [MagicStar] 特利迦奥特曼 / ウルトラマントリガー EP16 [WEBDL] [1080p] [HULU]【生】【附日字】

Magnet链接: magnet:?xt=urn:btih:67YCBNQDMYFTNFLDMSBKCFPAJUGMUCZX

Magnet链接typeII: magnet:?xt=urn:btih:f7f020b603660b3695636482a115e04d0cca0b37

PikPak載點: 保存至pikpak ?

弹幕播放链接: ddplay:magnet:?xt=urn:btih:67YCBNQDMYFTNFLDMSBKCFPAJUGMUCZX 

提供最优质的资源集合

立即查看 了解详情