魔星字幕团[MagicStar] 总之就是想在结婚申请书上盖章 / 婚姻届に判を捺しただけですが EP03 [WEBDL] [720p] [PARAVI]【生】

  • 所属分类:
    日剧
  • 发布时间: 2021/11/09 22:49
  • 种子下载: 下载种子/磁力链接
  • 文件大小: 187.3MB

簡介: 

HD 720p from Paravi.
alt text
alt text

General Unique ID                      : 18646212733807550233054500201091163262 (0xE0721441920FE819E8C60185AFDE47E) Complete name                  : Tonikaku.Konin.Todoke.ni.Han.wo.Oshitai.dake.desu.ga.EP03.720p.PARAVI.WEB-DL.AAC2.0.H.264-MagicStar.mkv Format                         : Matroska Format version                 : Version 4 File size                      : 187 MiB Duration                       : 10 min 33 s Overall bit rate               : 2 482 kb/s Encoded date                   : UTC 2021-11-09 14:46:57 Writing application            : mkvmerge v52.0.0 ('Secret For The Mad') 64-bit Writing library                : libebml v1.4.1   libmatroska v1.6.2 Cover                          : Yes Attachments                    : cover.png  Video ID                             : 1 Format                         : AVC Format/Info                    : Advanced Video Codec Format profile                 : [email protected] Format settings                : CABAC / 4 Ref Frames Format settings, CABAC         : Yes Format settings, Reference fra : 4 frames Codec ID                       : V_MPEG4/ISO/AVC Duration                       : 10 min 33 s Bit rate                       : 2 344 kb/s Width                          : 1 280 pixels Height                         : 720 pixels Display aspect ratio           : 16:9 Frame rate mode                : Constant Frame rate                     : 29.970 (29970/1000) FPS Original frame rate            : 29.970 (30000/1001) FPS Color space                    : YUV Chroma subsampling             : 4:2:0 Bit depth                      : 8 bits Scan type                      : Progressive Bits/(Pixel*Frame)             : 0.085 Stream size                    : 177 MiB (94%) Default                        : Yes Forced                         : No Color range                    : Limited Color primaries                : BT.709 Transfer characteristics       : BT.709 Matrix coefficients            : BT.709  Audio ID                             : 2 Format                         : AAC LC Format/Info                    : Advanced Audio Codec Low Complexity Codec ID                       : A_AAC-2 Duration                       : 10 min 33 s Bit rate                       : 125 kb/s Channel(s)                     : 2 channels Channel layout                 : L R Sampling rate                  : 48.0 kHz Frame rate                     : 46.875 FPS (1024 SPF) Compression mode               : Lossy Stream size                    : 9.46 MiB (5%) Language                       : Japanese Default                        : Yes Forced                         : No

  • BT列表

BT链接信息: [MagicStar] 总之就是想在结婚申请书上盖章 / 婚姻届に判を捺しただけですが EP03 [WEBDL] [720p] [PARAVI]【生】

Magnet链接: magnet:?xt=urn:btih:LTOAOXWNWJDYJCCRQVZD6U6DFVA5IEH3

Magnet链接typeII: magnet:?xt=urn:btih:5cdc075ecdb24784885185723f53c32d41d410fb

PikPak載點: 保存至pikpak ?

弹幕播放链接: ddplay:magnet:?xt=urn:btih:LTOAOXWNWJDYJCCRQVZD6U6DFVA5IEH3 

提供最优质的资源集合

立即查看 了解详情