魔星字幕团[MagicStar] 非主角的夜晚 ~爱情不会突然萌生~ / じゃない方の夜 ~恋は突然、生まれない。~ EP05 [WEBDL] [720p] [PARAVI]【生】

  • 所属分类:
    日剧
  • 发布时间: 2021/11/09 10:23
  • 种子下载: 下载种子/磁力链接
  • 文件大小: 244.8MB

簡介: 

HD 720p from Paravi.
alt text
alt text

General Unique ID                      : 91460651662170804826096754135943060192 (0x44CEAE4765AD88FD54F4D51EA0979AE0) Complete name                  : Janai.Hou.no.Yoru.Koi.wa.Totsuzen.Umarenai.EP05.720p.PARAVI.WEB-DL.AAC2.0.H.264-MagicStar.mkv Format                         : Matroska Format version                 : Version 4 File size                      : 245 MiB Duration                       : 13 min 49 s Overall bit rate               : 2 477 kb/s Encoded date                   : UTC 2021-11-08 15:27:24 Writing application            : mkvmerge v50.0.0 ('Awakenings') 64-bit Writing library                : libebml v1.4.0   libmatroska v1.6.2 Cover                          : Yes Attachments                    : cover.png  Video ID                             : 1 Format                         : AVC Format/Info                    : Advanced Video Codec Format profile                 : [email protected] Format settings                : CABAC / 4 Ref Frames Format settings, CABAC         : Yes Format settings, Reference fra : 4 frames Codec ID                       : V_MPEG4/ISO/AVC Duration                       : 13 min 49 s Bit rate                       : 2 341 kb/s Width                          : 1 280 pixels Height                         : 720 pixels Display aspect ratio           : 16:9 Frame rate mode                : Constant Frame rate                     : 29.970 (29970/1000) FPS Original frame rate            : 29.970 (30000/1001) FPS Color space                    : YUV Chroma subsampling             : 4:2:0 Bit depth                      : 8 bits Scan type                      : Progressive Bits/(Pixel*Frame)             : 0.085 Stream size                    : 231 MiB (95%) Default                        : Yes Forced                         : No Color range                    : Limited Color primaries                : BT.709 Transfer characteristics       : BT.709 Matrix coefficients            : BT.709  Audio ID                             : 2 Format                         : AAC LC Format/Info                    : Advanced Audio Codec Low Complexity Codec ID                       : A_AAC-2 Duration                       : 13 min 49 s Bit rate                       : 125 kb/s Channel(s)                     : 2 channels Channel layout                 : L R Sampling rate                  : 48.0 kHz Frame rate                     : 46.875 FPS (1024 SPF) Compression mode               : Lossy Stream size                    : 12.4 MiB (5%) Language                       : Japanese Default                        : Yes Forced                         : No

  • BT列表

BT链接信息: [MagicStar] 非主角的夜晚 ~爱情不会突然萌生~ / じゃない方の夜 ~恋は突然、生まれない。~ EP05 [WEBDL] [720p] [PARAVI]【生】

Magnet链接: magnet:?xt=urn:btih:DZWSINGNLQETTCW66J6OMRBXPYAB2ZDW

Magnet链接typeII: magnet:?xt=urn:btih:1e6d2434cd5c09398adef27ce644377e001d6476

PikPak載點: 保存至pikpak ?

弹幕播放链接: ddplay:magnet:?xt=urn:btih:DZWSINGNLQETTCW66J6OMRBXPYAB2ZDW 

提供最优质的资源集合

立即查看 了解详情