魔星字幕团[MagicStar] 最爱之人 ~The other side of 日本沉没~ / 最愛のひと ~The other side of 日本沈没~ EP04 [WEBDL] [720p] [PARAVI]【生】

  • 所属分类:
    日剧
  • 发布时间: 2021/11/07 22:03
  • 种子下载: 下载种子/磁力链接
  • 文件大小: 275.2MB

簡介: 

HD 720p from Paravi.
alt text
alt text

General Unique ID                      : 287318745225971149364741149089686319264 (0xD82793D722821C7A9011C9B200AB70A0) Complete name                  : Saiai.no.Hito.The.other.side.of.Nihon.Chinbotsu.EP04.720p.PARAVI.WEB-DL.AAC2.0.H.264-MagicStar.mkv Format                         : Matroska Format version                 : Version 4 File size                      : 275 MiB Duration                       : 15 min 44 s Overall bit rate               : 2 445 kb/s Encoded date                   : UTC 2021-11-07 13:51:22 Writing application            : mkvmerge v50.0.0 ('Awakenings') 64-bit Writing library                : libebml v1.4.0   libmatroska v1.6.2 Cover                          : Yes Attachments                    : cover.png  Video ID                             : 1 Format                         : AVC Format/Info                    : Advanced Video Codec Format profile                 : [email protected] Format settings                : CABAC / 4 Ref Frames Format settings, CABAC         : Yes Format settings, Reference fra : 4 frames Codec ID                       : V_MPEG4/ISO/AVC Duration                       : 15 min 44 s Bit rate                       : 2 311 kb/s Width                          : 1 280 pixels Height                         : 720 pixels Display aspect ratio           : 16:9 Frame rate mode                : Constant Frame rate                     : 29.970 (29970/1000) FPS Original frame rate            : 29.970 (30000/1001) FPS Color space                    : YUV Chroma subsampling             : 4:2:0 Bit depth                      : 8 bits Scan type                      : Progressive Bits/(Pixel*Frame)             : 0.084 Stream size                    : 260 MiB (94%) Default                        : Yes Forced                         : No Color range                    : Limited Color primaries                : BT.709 Transfer characteristics       : BT.709 Matrix coefficients            : BT.709  Audio ID                             : 2 Format                         : AAC LC Format/Info                    : Advanced Audio Codec Low Complexity Codec ID                       : A_AAC-2 Duration                       : 15 min 44 s Bit rate                       : 125 kb/s Channel(s)                     : 2 channels Channel layout                 : L R Sampling rate                  : 48.0 kHz Frame rate                     : 46.875 FPS (1024 SPF) Compression mode               : Lossy Stream size                    : 14.1 MiB (5%) Language                       : Japanese Default                        : Yes Forced                         : No

  • BT列表

BT链接信息: [MagicStar] 最爱之人 ~The other side of 日本沉没~ / 最愛のひと ~The other side of 日本沈没~ EP04 [WEBDL] [720p] [PARAVI]【生】

Magnet链接: magnet:?xt=urn:btih:CNFMVJLO6JA2WZALZF3NFQFF7LPMRCJX

Magnet链接typeII: magnet:?xt=urn:btih:134acaa56ef241ab640bc976d2c0a5fadec88937

PikPak載點: 保存至pikpak ?

弹幕播放链接: ddplay:magnet:?xt=urn:btih:CNFMVJLO6JA2WZALZF3NFQFF7LPMRCJX 

提供最优质的资源集合

立即查看 了解详情