魔星字幕团[MagicStar] 特利迦奥特曼 / ウルトラマントリガー EP14 [WEBDL] [1080p] [AMZN]【生】

  • 所属分类:
    特摄
  • 发布时间: 2021/11/05 2:02
  • 种子下载: 下载种子/磁力链接
  • 文件大小: 1.2GB

簡介: 

HD 1080p from Prime Video.
alt text
alt text

General Unique ID                      : 129717862026625962615310833533010029857 (0x6196C060FC8D97782675CBC466D3AD21) Complete name                  : Ultraman.Trigger.EP14.1080p.AMZN.WEB-DL.DDP2.0.H.264-MagicStar.mkv Format                         : Matroska Format version                 : Version 4 File size                      : 1.16 GiB Duration                       : 24 min 37 s Overall bit rate               : 6 770 kb/s Encoded date                   : UTC 2021-11-02 05:39:22 Writing application            : mkvmerge v50.0.0 ('Awakenings') 64-bit Writing library                : libebml v1.4.0   libmatroska v1.6.2 Cover                          : Yes Attachments                    : cover.png  Video ID                             : 1 Format                         : AVC Format/Info                    : Advanced Video Codec Format profile                 : [email protected] Format settings                : CABAC / 4 Ref Frames Format settings, CABAC         : Yes Format settings, Reference fra : 4 frames Codec ID                       : V_MPEG4/ISO/AVC Duration                       : 24 min 37 s Bit rate                       : 6 531 kb/s Width                          : 1 920 pixels Height                         : 1 080 pixels Display aspect ratio           : 16:9 Frame rate mode                : Constant Frame rate                     : 23.976 (24000/1001) FPS Color space                    : YUV Chroma subsampling             : 4:2:0 Bit depth                      : 8 bits Scan type                      : Progressive Bits/(Pixel*Frame)             : 0.131 Stream size                    : 1.12 GiB (96%) Default                        : Yes Forced                         : No Color range                    : Limited Color primaries                : BT.709 Transfer characteristics       : BT.709 Matrix coefficients            : BT.709  Audio ID                             : 2 Format                         : E-AC-3 Format/Info                    : Enhanced AC-3 Commercial name                : Dolby Digital Plus Codec ID                       : A_EAC3 Duration                       : 24 min 37 s Bit rate mode                  : Constant Bit rate                       : 224 kb/s Channel(s)                     : 2 channels Channel layout                 : L R Sampling rate                  : 48.0 kHz Frame rate                     : 31.250 FPS (1536 SPF) Compression mode               : Lossy Stream size                    : 39.4 MiB (3%) Language                       : Japanese Service kind                   : Complete Main Default                        : Yes Forced                         : No

  • BT列表

BT链接信息: [MagicStar] 特利迦奥特曼 / ウルトラマントリガー EP14 [WEBDL] [1080p] [AMZN]【生】

Magnet链接: magnet:?xt=urn:btih:N7UCGR7U4T7GFAQ6ODZ4PKPHKXW5I3Q2

Magnet链接typeII: magnet:?xt=urn:btih:6fe82347f4e4fe62821e70f3c7a9e755edd46e1a

PikPak載點: 保存至pikpak ?

弹幕播放链接: ddplay:magnet:?xt=urn:btih:N7UCGR7U4T7GFAQ6ODZ4PKPHKXW5I3Q2 

提供最优质的资源集合

立即查看 了解详情