魔星字幕团[MagicStar] 不幸的女孩! / アンラッキーガール! EP04 [WEBDL] [1080p] [HULU]【生】【附日字】

  • 所属分类:
    日剧
  • 发布时间: 2021/10/30 13:23
  • 种子下载: 下载种子/磁力链接
  • 文件大小: 1.2GB

簡介: 

HD 1080p from HULU JAPAN.
alt text
alt text

General Unique ID                      : 223200441725509935912981643112860737565 (0xA7EAD76815C5AA86BAC93528A1E5E01D) Complete name                  : Unlucky.Girl.EP04.1080p.HULU.WEB-DL.AAC2.0.H.264-MagicStar.mkv Format                         : Matroska Format version                 : Version 4 File size                      : 1.21 GiB Duration                       : 42 min 37 s Overall bit rate               : 4 066 kb/s Encoded date                   : UTC 2021-10-28 23:41:41 Writing application            : mkvmerge v52.0.0 ('Secret For The Mad') 64-bit Writing library                : libebml v1.4.1   libmatroska v1.6.2 Cover                          : Yes Attachments                    : cover.png  Video ID                             : 1 Format                         : AVC Format/Info                    : Advanced Video Codec Format profile                 : [email protected] Format settings                : CABAC / 4 Ref Frames Format settings, CABAC         : Yes Format settings, Reference fra : 4 frames Codec ID                       : V_MPEG4/ISO/AVC Duration                       : 42 min 37 s Bit rate                       : 3 938 kb/s Width                          : 1 920 pixels Height                         : 1 080 pixels Display aspect ratio           : 16:9 Frame rate mode                : Constant Frame rate                     : 29.970 (29970/1000) FPS Original frame rate            : 29.970 (30000/1001) FPS Color space                    : YUV Chroma subsampling             : 4:2:0 Bit depth                      : 8 bits Scan type                      : Progressive Bits/(Pixel*Frame)             : 0.063 Stream size                    : 1.17 GiB (97%) Default                        : Yes Forced                         : No Color range                    : Limited Color primaries                : BT.709 Transfer characteristics       : BT.709 Matrix coefficients            : BT.709  Audio ID                             : 2 Format                         : AAC LC Format/Info                    : Advanced Audio Codec Low Complexity Codec ID                       : A_AAC-2 Duration                       : 42 min 37 s Bit rate                       : 125 kb/s Channel(s)                     : 2 channels Channel layout                 : L R Sampling rate                  : 48.0 kHz Frame rate                     : 46.875 FPS (1024 SPF) Compression mode               : Lossy Stream size                    : 38.2 MiB (3%) Language                       : Japanese Default                        : Yes Forced                         : No

  • BT列表

BT链接信息: [MagicStar] 不幸的女孩! / アンラッキーガール! EP04 [WEBDL] [1080p] [HULU]【生】【附日字】

Magnet链接: magnet:?xt=urn:btih:VM7VQCIH4AAY7HJJ5Z5FBNZHO3TTZOYM

Magnet链接typeII: magnet:?xt=urn:btih:ab3f580907e0018f9d29ee7a50b72776e73cbb0c

PikPak載點: 保存至pikpak ?

弹幕播放链接: ddplay:magnet:?xt=urn:btih:VM7VQCIH4AAY7HJJ5Z5FBNZHO3TTZOYM 

提供最优质的资源集合

立即查看 了解详情