魔星字幕团[MagicStar] 总之就是想在结婚申请书上盖章 / 婚姻届に判を捺しただけですが EP02 [WEBDL] [720p] [PARAVI]【生】

  • 所属分类:
    日剧
  • 发布时间: 2021/10/28 12:46
  • 种子下载: 下载种子/磁力链接
  • 文件大小: 174.2MB

簡介: 

HD 720p from Paravi.
alt text
alt text

General Unique ID                      : 168279668169582199694078192904904799573 (0x7E997C35CCFF3CC2864D21F666467555) Complete name                  : Tonikaku.Konin.Todoke.ni.Han.wo.Oshitai.dake.desu.ga.EP02.720p.PARAVI.WEB-DL.AAC2.0.H.264-MagicStar.mkv Format                         : Matroska Format version                 : Version 4 File size                      : 174 MiB Duration                       : 10 min 4 s Overall bit rate               : 2 420 kb/s Encoded date                   : UTC 2021-10-28 04:42:04 Writing application            : mkvmerge v52.0.0 ('Secret For The Mad') 64-bit Writing library                : libebml v1.4.1   libmatroska v1.6.2 Cover                          : Yes Attachments                    : cover.png  Video ID                             : 1 Format                         : AVC Format/Info                    : Advanced Video Codec Format profile                 : [email protected] Format settings                : CABAC / 4 Ref Frames Format settings, CABAC         : Yes Format settings, Reference fra : 4 frames Codec ID                       : V_MPEG4/ISO/AVC Duration                       : 10 min 4 s Bit rate                       : 2 344 kb/s Width                          : 1 280 pixels Height                         : 720 pixels Display aspect ratio           : 16:9 Frame rate mode                : Constant Frame rate                     : 29.970 (29970/1000) FPS Original frame rate            : 29.970 (30000/1001) FPS Color space                    : YUV Chroma subsampling             : 4:2:0 Bit depth                      : 8 bits Scan type                      : Progressive Bits/(Pixel*Frame)             : 0.085 Stream size                    : 169 MiB (97%) Default                        : Yes Forced                         : No Color range                    : Limited Color primaries                : BT.709 Transfer characteristics       : BT.709 Matrix coefficients            : BT.709  Audio ID                             : 2 Format                         : AAC LC Format/Info                    : Advanced Audio Codec Low Complexity Codec ID                       : A_AAC-2 Duration                       : 10 min 4 s Bit rate                       : 61.4 kb/s Channel(s)                     : 2 channels Channel layout                 : L R Sampling rate                  : 48.0 kHz Frame rate                     : 46.875 FPS (1024 SPF) Compression mode               : Lossy Stream size                    : 4.42 MiB (3%) Language                       : Japanese Default                        : Yes Forced                         : No

  • BT列表

BT链接信息: [MagicStar] 总之就是想在结婚申请书上盖章 / 婚姻届に判を捺しただけですが EP02 [WEBDL] [720p] [PARAVI]【生】

Magnet链接: magnet:?xt=urn:btih:WH7V2RITIHVICB2RCY22YE4F23G3T7JX

Magnet链接typeII: magnet:?xt=urn:btih:b1ff5d451341ea8107511635ac1385d6cdb9fd37

PikPak載點: 保存至pikpak ?

弹幕播放链接: ddplay:magnet:?xt=urn:btih:WH7V2RITIHVICB2RCY22YE4F23G3T7JX 

提供最优质的资源集合

立即查看 了解详情