魔星字幕团[MagicStar] 反正你也逃不掉 / どうせもう逃げられない EP06 [WEBDL] [1080p] [AMZN]【生】【附日字】

  • 所属分类:
    日剧
  • 发布时间: 2021/10/23 13:59
  • 种子下载: 下载种子/磁力链接
  • 文件大小: 787.7MB

簡介: 

HD 1080p from Prime Video.
Japanese subtitles added.
alt text
alt text

General Unique ID                      : 134392266231840670651008943001727964172 (0x651B024CB5AB8AD77B412E184B44940C) Complete name                  : Douse.Mou.Nigerarenai.EP06.1080p.AMZN.WEB-DL.DDP2.0.H.264-MagicStar.mkv Format                         : Matroska Format version                 : Version 4 File size                      : 788 MiB Duration                       : 24 min 6 s Overall bit rate               : 4 569 kb/s Encoded date                   : UTC 2021-10-22 10:04:45 Writing application            : mkvmerge v50.0.0 ('Awakenings') 64-bit Writing library                : libebml v1.4.0   libmatroska v1.6.2 Cover                          : Yes Attachments                    : cover.png  Video ID                             : 1 Format                         : AVC Format/Info                    : Advanced Video Codec Format profile                 : [email protected] Format settings                : CABAC / 4 Ref Frames Format settings, CABAC         : Yes Format settings, Reference fra : 4 frames Codec ID                       : V_MPEG4/ISO/AVC Duration                       : 24 min 5 s Bit rate                       : 4 292 kb/s Width                          : 1 920 pixels Height                         : 1 080 pixels Display aspect ratio           : 16:9 Frame rate mode                : Constant Frame rate                     : 29.970 (29970/1000) FPS Original frame rate            : 29.970 (30000/1001) FPS Color space                    : YUV Chroma subsampling             : 4:2:0 Bit depth                      : 8 bits Scan type                      : Progressive Bits/(Pixel*Frame)             : 0.069 Stream size                    : 740 MiB (94%) Default                        : Yes Forced                         : No Color range                    : Limited Color primaries                : BT.709 Transfer characteristics       : BT.709 Matrix coefficients            : BT.709  Audio ID                             : 2 Format                         : E-AC-3 Format/Info                    : Enhanced AC-3 Commercial name                : Dolby Digital Plus Codec ID                       : A_EAC3 Duration                       : 24 min 6 s Bit rate mode                  : Constant Bit rate                       : 224 kb/s Channel(s)                     : 2 channels Channel layout                 : L R Sampling rate                  : 48.0 kHz Frame rate                     : 31.250 FPS (1536 SPF) Compression mode               : Lossy Stream size                    : 38.6 MiB (5%) Language                       : Japanese Service kind                   : Complete Main Default                        : Yes Forced                         : No

  • BT列表

BT链接信息: [MagicStar] 反正你也逃不掉 / どうせもう逃げられない EP06 [WEBDL] [1080p] [AMZN]【生】【附日字】

Magnet链接: magnet:?xt=urn:btih:FG7TWYN4XOZD25PCBWMCCWRPEV2IO4UH

Magnet链接typeII: magnet:?xt=urn:btih:29bf3b61bcbbb23d75e20d98215a2f2574877287

PikPak載點: 保存至pikpak ?

弹幕播放链接: ddplay:magnet:?xt=urn:btih:FG7TWYN4XOZD25PCBWMCCWRPEV2IO4UH 

提供最优质的资源集合

立即查看 了解详情