魔星字幕团[MagicStar] 美味的校餐 第二季 / おいしい給食 Season2 EP01 [WEBDL] [1080p] [AMZN]【生】【附日字】

  • 所属分类:
    日剧
  • 发布时间: 2021/10/22 22:11
  • 种子下载: 下载种子/磁力链接
  • 文件大小: 745.2MB

簡介: 

HD 1080p from Prime Video.
Japanese subtitles added.
alt text
alt text

General Unique ID                      : 328473017779135142737133716552434556080 (0xF71D9A2255B68EB7091486A37B179CB0) Complete name                  : Oishii.Kyuushoku.Season2.EP01.1080p.AMZN.WEB-DL.DDP2.0.H.264-MagicStar.mkv Format                         : Matroska Format version                 : Version 4 File size                      : 745 MiB Duration                       : 23 min 59 s Overall bit rate               : 4 341 kb/s Encoded date                   : UTC 2021-10-22 09:50:40 Writing application            : mkvmerge v50.0.0 ('Awakenings') 64-bit Writing library                : libebml v1.4.0   libmatroska v1.6.2 Cover                          : Yes Attachments                    : cover.png  Video ID                             : 1 Format                         : AVC Format/Info                    : Advanced Video Codec Format profile                 : [email protected] Format settings                : CABAC / 4 Ref Frames Format settings, CABAC         : Yes Format settings, Reference fra : 4 frames Codec ID                       : V_MPEG4/ISO/AVC Duration                       : 23 min 59 s Bit rate                       : 4 114 kb/s Width                          : 1 920 pixels Height                         : 1 080 pixels Display aspect ratio           : 16:9 Frame rate mode                : Constant Frame rate                     : 23.976 (24000/1001) FPS Color space                    : YUV Chroma subsampling             : 4:2:0 Bit depth                      : 8 bits Scan type                      : Progressive Bits/(Pixel*Frame)             : 0.083 Stream size                    : 706 MiB (95%) Default                        : Yes Forced                         : No Color range                    : Limited Color primaries                : BT.709 Transfer characteristics       : BT.709 Matrix coefficients            : BT.709  Audio ID                             : 2 Format                         : E-AC-3 Format/Info                    : Enhanced AC-3 Commercial name                : Dolby Digital Plus Codec ID                       : A_EAC3 Duration                       : 23 min 59 s Bit rate mode                  : Constant Bit rate                       : 224 kb/s Channel(s)                     : 2 channels Channel layout                 : L R Sampling rate                  : 48.0 kHz Frame rate                     : 31.250 FPS (1536 SPF) Compression mode               : Lossy Stream size                    : 38.5 MiB (5%) Language                       : Japanese Service kind                   : Complete Main Default                        : Yes Forced                         : No

  • BT列表

BT链接信息: [MagicStar] 美味的校餐 第二季 / おいしい給食 Season2 EP01 [WEBDL] [1080p] [AMZN]【生】【附日字】

Magnet链接: magnet:?xt=urn:btih:UVLSQ3UBVYWUP7MJXRKIYEAV4U3WHVMI

Magnet链接typeII: magnet:?xt=urn:btih:a557286e81ae2d47fd89bc548c1015e53763d588

PikPak載點: 保存至pikpak ?

弹幕播放链接: ddplay:magnet:?xt=urn:btih:UVLSQ3UBVYWUP7MJXRKIYEAV4U3WHVMI 

提供最优质的资源集合

立即查看 了解详情