魔星字幕团[MagicStar] 最爱之人 ~The other side of 日本沉没~ / 最愛のひと ~The other side of 日本沈没~ EP01 [WEBDL] [720p] [PARAVI]【生】

  • 所属分类:
    日剧
  • 发布时间: 2021/10/19 2:20
  • 种子下载: 下载种子/磁力链接
  • 文件大小: 257.7MB

簡介: 

HD 720p from Paravi.
alt text
alt text

General Unique ID                      : 254169666146656424932321163695330518225 (0xBF374C0EA8A5CD85B04C190167FD64D1) Complete name                  : Saiai.no.Hito.The.other.side.of.Nihon.Chinbotsu.EP01.720p.PARAVI.WEB-DL.AAC2.0.H.264-MagicStar.mkv Format                         : Matroska Format version                 : Version 4 File size                      : 258 MiB Duration                       : 14 min 58 s Overall bit rate               : 2 407 kb/s Encoded date                   : UTC 2021-10-18 16:09:33 Writing application            : mkvmerge v50.0.0 ('Awakenings') 64-bit Writing library                : libebml v1.4.0   libmatroska v1.6.2 Cover                          : Yes Attachments                    : cover.png  Video ID                             : 1 Format                         : AVC Format/Info                    : Advanced Video Codec Format profile                 : [email protected] Format settings                : CABAC / 4 Ref Frames Format settings, CABAC         : Yes Format settings, Reference fra : 4 frames Codec ID                       : V_MPEG4/ISO/AVC Duration                       : 14 min 58 s Bit rate                       : 2 335 kb/s Width                          : 1 280 pixels Height                         : 720 pixels Display aspect ratio           : 16:9 Frame rate mode                : Constant Frame rate                     : 29.970 (29970/1000) FPS Original frame rate            : 29.970 (30000/1001) FPS Color space                    : YUV Chroma subsampling             : 4:2:0 Bit depth                      : 8 bits Scan type                      : Progressive Bits/(Pixel*Frame)             : 0.085 Stream size                    : 250 MiB (97%) Default                        : Yes Forced                         : No Color range                    : Limited Color primaries                : BT.709 Transfer characteristics       : BT.709 Matrix coefficients            : BT.709  Audio ID                             : 2 Format                         : AAC LC Format/Info                    : Advanced Audio Codec Low Complexity Codec ID                       : A_AAC-2 Duration                       : 14 min 58 s Bit rate                       : 61.4 kb/s Channel(s)                     : 2 channels Channel layout                 : L R Sampling rate                  : 48.0 kHz Frame rate                     : 46.875 FPS (1024 SPF) Compression mode               : Lossy Stream size                    : 6.57 MiB (3%) Language                       : Japanese Default                        : Yes Forced                         : No

  • BT列表

BT链接信息: [MagicStar] 最爱之人 ~The other side of 日本沉没~ / 最愛のひと ~The other side of 日本沈没~ EP01 [WEBDL] [720p] [PARAVI]【生】

Magnet链接: magnet:?xt=urn:btih:BKPH24BLJMIVC2HGPKAUOANUI23INLE5

Magnet链接typeII: magnet:?xt=urn:btih:0a9e7d702b4b115168e67a814701b446b686ac9d

PikPak載點: 保存至pikpak ?

弹幕播放链接: ddplay:magnet:?xt=urn:btih:BKPH24BLJMIVC2HGPKAUOANUI23INLE5 

提供最优质的资源集合

立即查看 了解详情