魔星字幕团[MagicStar] 骑士龙战队龙装者 THE LEGACY OF The Master’s Soul / 騎士竜戦隊リュウソウジャー THE LEGACY OF The Master’s Soul EP01 [WEBDL] [1080p] [TTFC]【生】

  • 所属分类:
    特摄
  • 发布时间: 2021/10/17 9:33
  • 种子下载: 下载种子/磁力链接
  • 文件大小: 477MB

簡介: 

HD 1080p from TTFC.
alt text
alt text

General Unique ID                      : 311037003471137464727751037796950011993 (0xE9FF8C41D8F9AEE8B394D1944C14F059) Complete name                  : [MagicStar] Dinoknight Sentai Ryusoulger - THE LEGACY OF The Master’s Soul EP01 [WEBDL] [1080p].mkv Format                         : Matroska Format version                 : Version 2 File size                      : 477 MiB Duration                       : 15 min 42 s Overall bit rate               : 4 247 kb/s Encoded date                   : UTC 2021-10-17 01:23:34 Writing application            : mkvmerge v42.0.0 ('Overtime') 64-bit Writing library                : libebml v1.3.10   libmatroska v1.5.2  Video ID                             : 1 Format                         : AVC Format/Info                    : Advanced Video Codec Format profile                 : [email protected] Format settings                : CABAC / 4 Ref Frames Format settings, CABAC         : Yes Format settings, Reference fra : 4 frames Format settings, GOP           : M=3, N=48 Codec ID                       : V_MPEG4/ISO/AVC Duration                       : 15 min 42 s Bit rate                       : 3 874 kb/s Width                          : 1 920 pixels Height                         : 1 080 pixels Display aspect ratio           : 16:9 Frame rate mode                : Constant Frame rate                     : 23.976 (24000/1001) FPS Color space                    : YUV Chroma subsampling             : 4:2:0 Bit depth                      : 8 bits Scan type                      : Progressive Bits/(Pixel*Frame)             : 0.078 Stream size                    : 435 MiB (91%) Writing library                : x264 core 148 Encoding settings              : cabac=1 / ref=4 / deblock=1:1:1 / analyse=0x3:0x113 / me=hex / subme=7 / psy=1 / psy_rd=0.40:0.00 / mixed_ref=1 / me_range=16 / chroma_me=1 / trellis=1 / 8x8dct=1 / cqm=0 / deadzone=21,11 / fast_pskip=1 / chroma_qp_offset=-2 / threads=12 / lookahead_threads=2 / sliced_threads=0 / nr=0 / decimate=1 / interlaced=0 / bluray_compat=0 / constrained_intra=0 / bframes=2 / b_pyramid=2 / b_adapt=0 / b_bias=0 / direct=1 / weightb=1 / open_gop=0 / weightp=2 / keyint=48 / keyint_min=25 / scenecut=0 / intra_refresh=0 / rc_lookahead=40 / rc=crf / mbtree=1 / crf=23.0 / qcomp=0.60 / qpmin=0 / qpmax=69 / qpstep=4 / vbv_maxrate=6000 / vbv_bufsize=6000 / crf_max=0.0 / nal_hrd=none / filler=0 / ip_ratio=1.40 / aq=1:0.60 Default                        : Yes Forced                         : No  Audio ID                             : 2 Format                         : AAC LC Format/Info                    : Advanced Audio Codec Low Complexity Codec ID                       : A_AAC-2 Duration                       : 15 min 42 s Bit rate                       : 371 kb/s Channel(s)                     : 2 channels Channel layout                 : L R Sampling rate                  : 48.0 kHz Frame rate                     : 46.875 FPS (1024 SPF) Compression mode               : Lossy Delay relative to video        : 9 ms Stream size                    : 41.6 MiB (9%) Language                       : Japanese Default                        : Yes Forced                         : No

  • BT列表

BT链接信息: [MagicStar] 骑士龙战队龙装者 THE LEGACY OF The Master’s Soul / 騎士竜戦隊リュウソウジャー THE LEGACY OF The Master’s Soul EP01 [WEBDL] [1080p] [TTFC]【生】

Magnet链接: magnet:?xt=urn:btih:XYKDBNJECJ7R7EAUZG7OST33C2KAGUOF

Magnet链接typeII: magnet:?xt=urn:btih:be1430b524127f1f9014c9bee94f7b16940351c5

PikPak載點: 保存至pikpak ?

弹幕播放链接: ddplay:magnet:?xt=urn:btih:XYKDBNJECJ7R7EAUZG7OST33C2KAGUOF 

提供最优质的资源集合

立即查看 了解详情