魔星字幕团[MagicStar] 假面骑士Revice / 仮面ライダーリバイス EP05 [WEBDL] [1080p] [TTFC]【生】

  • 所属分类:
    特摄
  • 发布时间: 2021/10/09 9:31
  • 种子下载: 下载种子/磁力链接
  • 文件大小: 610MB

簡介: 

HD 1080p from TTFC.
alt text
alt text

General Unique ID                      : 142736549065775242205846347884433547469 (0x6B620F34DDCD41447CF089A8BD64A0CD) Complete name                  : [MagicStar] Kamen Rider Revice EP05 [WEBDL] [1080p].mkv Format                         : Matroska Format version                 : Version 2 File size                      : 610 MiB Duration                       : 23 min 35 s Overall bit rate               : 3 616 kb/s Encoded date                   : UTC 2021-10-07 23:16:38 Writing application            : mkvmerge v42.0.0 ('Overtime') 64-bit Writing library                : libebml v1.3.10   libmatroska v1.5.2  Video ID                             : 1 Format                         : AVC Format/Info                    : Advanced Video Codec Format profile                 : [email protected] Format settings                : CABAC / 4 Ref Frames Format settings, CABAC         : Yes Format settings, Reference fra : 4 frames Format settings, GOP           : M=3, N=48 Codec ID                       : V_MPEG4/ISO/AVC Duration                       : 23 min 35 s Bit rate                       : 3 250 kb/s Width                          : 1 920 pixels Height                         : 1 080 pixels Display aspect ratio           : 16:9 Frame rate mode                : Constant Frame rate                     : 23.976 (24000/1001) FPS Color space                    : YUV Chroma subsampling             : 4:2:0 Bit depth                      : 8 bits Scan type                      : Progressive Bits/(Pixel*Frame)             : 0.065 Stream size                    : 548 MiB (90%) Writing library                : x264 core 148 Encoding settings              : cabac=1 / ref=4 / deblock=1:1:1 / analyse=0x3:0x113 / me=hex / subme=7 / psy=1 / psy_rd=0.40:0.00 / mixed_ref=1 / me_range=16 / chroma_me=1 / trellis=1 / 8x8dct=1 / cqm=0 / deadzone=21,11 / fast_pskip=1 / chroma_qp_offset=-2 / threads=12 / lookahead_threads=2 / sliced_threads=0 / nr=0 / decimate=1 / interlaced=0 / bluray_compat=0 / constrained_intra=0 / bframes=2 / b_pyramid=2 / b_adapt=0 / b_bias=0 / direct=1 / weightb=1 / open_gop=0 / weightp=2 / keyint=48 / keyint_min=25 / scenecut=0 / intra_refresh=0 / rc_lookahead=40 / rc=crf / mbtree=1 / crf=23.0 / qcomp=0.60 / qpmin=0 / qpmax=69 / qpstep=4 / vbv_maxrate=6000 / vbv_bufsize=6000 / crf_max=0.0 / nal_hrd=none / filler=0 / ip_ratio=1.40 / aq=1:0.60 Default                        : Yes Forced                         : No  Audio ID                             : 2 Format                         : AAC LC Format/Info                    : Advanced Audio Codec Low Complexity Codec ID                       : A_AAC-2 Duration                       : 23 min 35 s Bit rate                       : 364 kb/s Channel(s)                     : 2 channels Channel layout                 : L R Sampling rate                  : 48.0 kHz Frame rate                     : 46.875 FPS (1024 SPF) Compression mode               : Lossy Delay relative to video        : 9 ms Stream size                    : 61.5 MiB (10%) Language                       : Japanese Default                        : Yes Forced                         : No

  • BT列表

BT链接信息: [MagicStar] 假面骑士Revice / 仮面ライダーリバイス EP05 [WEBDL] [1080p] [TTFC]【生】

Magnet链接: magnet:?xt=urn:btih:C4S4PRIWGNA4UHUOXTHD7IF426RCXXWD

Magnet链接typeII: magnet:?xt=urn:btih:1725c7c5163341ca1e8ebcce3fa0bcd7a22bdec3

PikPak載點: 保存至pikpak ?

弹幕播放链接: ddplay:magnet:?xt=urn:btih:C4S4PRIWGNA4UHUOXTHD7IF426RCXXWD 

提供最优质的资源集合

立即查看 了解详情