LoliHouse[LoliHouse] 犬神同学和猫山同学 / Inugami-san to Nekoyama-san / 犬神さんと猫山さん [BDRip 1080p HEVC-10bit FLAC]

  • 所属分类:
    动漫 >  季度全集
  • 发布时间: 2021/10/08 19:49
  • 种子下载: 下载种子/磁力链接
  • 文件大小: 2.0GB

簡介: 

Poster

犬神同学和猫山同学 / Inugami-san to Nekoyama-san / 犬神さんと猫山さん

General
Unique ID                                : 281716259935166499608401459349398874325 (0xD3F093FD3F36FE6161181595B60DE8D5)
Complete name                            : W:\[LoliHouse] Inugami-san to Nekoyama-san [BDRip 1080p HEVC-10bit FLAC]\[LoliHouse] Inugami-san to Nekoyama-san - 02 [BDRip 1080p HEVC-10bit FLAC].mkv
Format                                   : Matroska
Format version                           : Version 4
File size                                : 76.0 MiB
Duration                                 : 3 min 30 s
Overall bit rate mode                    : Variable
Overall bit rate                         : 3 034 kb/s
Movie name                               : 牛若さんと杜松さん
Track name/Position                      : 2
Track name/Total                         : 12
Encoded by                               : 見崎かすみ
Encoded date                             : UTC 2021-10-07 11:23:54
Writing application                      : mkvmerge v61.0.0 ('So') 64-bit
Writing library                          : libebml v1.4.2   libmatroska v1.6.4
Video
ID                                       : 1
Format                                   : HEVC
Format/Info                              : High Efficiency Video Coding
Format profile                           : Main [email protected]@High
Codec ID                                 : V_MPEGH/ISO/HEVC
Duration                                 : 3 min 30 s
Bit rate                                 : 1 267 kb/s
Width                                    : 1 920 pixels
Height                                   : 1 080 pixels
Display aspect ratio                     : 16:9
Frame rate mode                          : Constant
Frame rate                               : 23.976 (24000/1001) FPS
Color space                              : YUV
Chroma subsampling                       : 4:2:0
Bit depth                                : 10 bits
Bits/(Pixel*Frame)                       : 0.025
Stream size                              : 31.7 MiB (42%)
Writing library                          : x265 3.5g2b25c9ba0 90:[Windows][clang 12.0.1][64 bit] Kasumi 10bit
Encoding settings                        : rc=crf / crf=15.0000 / qcomp=0.60 / qpstep=4 / stats-write=0 / stats-read=0 / no-lossless / no-cu-lossless / aq-mode=1 / aq-strength=0.60 / cbqpoffs=-2 / crqpoffs=-2 / ipratio=1.40 / pbratio=1.20 / psy-rd=1.60 / psy-rdoq=0.70 / deblock=-1:-1 / ref=5 / limit-refs=1 / limit-modes / bframes=8 / b-adapt=2 / bframe-bias=0 / b-pyramid / b-intra / weightp / weightb / min-keyint=1 / max-keyint=720 / rc-lookahead=80 / gop-lookahead=0 / scenecut=40 / hist-scenecut=0 / radl=0 / max-cu-size=32 / min-cu-size=8 / me=3 / subme=4 / merange=25 / rdoq-level=1 / rd=4 / rdpenalty=0 / dynamic-rd=0.00 / no-rd-refine / ----- / cutree / no-sao / no-rect / no-amp / no-open-gop / wpp / no-pmode / no-pme / no-psnr / no-ssim / nr-intra=0 / nr-inter=0 / no-constrained-intra / no-strong-intra-smoothing / max-tu-size=32 / tu-inter-depth=3 / tu-intra-depth=3 / limit-tu=4 / qg-size=16 / qpmax=69 / qpmin=0 / ----- / cpuid=1111039 / frame-threads=4 / numa-pools=16 / log-level=2 / input-csp=1 / input-res=1920x1080 / interlace=0 / level-idc=0 / high-tier=1 / uhd-bd=0 / no-allow-non-conformance / no-repeat-headers / no-aud / no-hrd / info / hash=0 / no-temporal-layers / lookahead-slices=0 / no-splice / no-intra-refresh / no-ssim-rd / signhide / no-tskip / max-merge=4 / temporal-mvp / no-frame-dup / no-hme / no-analyze-src-pics / no-sao-non-deblock / selective-sao=0 / no-early-skip / rskip / no-fast-intra / no-tskip-fast / no-splitrd-skip / zone-count=0 / no-strict-cbr / no-rc-grain / no-const-vbv / sar=0 / overscan=0 / videoformat=5 / range=0 / colorprim=1 / transfer=1 / colormatrix=1 / chromaloc=0 / display-window=0 / cll=0,0 / min-luma=0 / max-luma=1023 / log2-max-poc-lsb=8 / vui-timing-info / vui-hrd-info / slices=1 / no-opt-qp-pps / no-opt-ref-list-length-pps / no-multi-pass-opt-rps / scenecut-bias=0.05 / hist-threshold=0.03 / no-opt-cu-delta-qp / no-aq-motion / no-hdr10 / no-hdr10-opt / no-dhdr10-opt / no-idr-recovery-sei / analysis-reuse-level=0 / analysis-save-reuse-level=0 / analysis-load-reuse-level=0 / scale-factor=0 / refine-intra=0 / refine-inter=0 / refine-mv=1 / refine-ctu-distortion=0 / no-limit-sao / ctu-info=0 / no-lowpass-dct / refine-analysis-type=0 / copy-pic=1 / max-ausize-factor=1.0 / no-dynamic-refine / no-single-sei / no-hevc-aq / no-svt / no-field / qp-adaptation-range=1.00 / scenecut-aware-qp=0conformance-window-offsets / right=0 / bottom=0 / decoder-max-rate=0 / no-vbv-live-multi-pass
Default                                  : Yes
Forced                                   : No
Color range                              : Limited
Color primaries                          : BT.709
Transfer characteristics                 : BT.709
Matrix coefficients                      : BT.709
Audio #1
ID                                       : 2
Format                                   : FLAC
Format/Info                              : Free Lossless Audio Codec
Codec ID                                 : A_FLAC
Duration                                 : 3 min 30 s
Bit rate mode                            : Variable
Bit rate                                 : 1 403 kb/s
Channel(s)                               : 2 channels
Channel layout                           : L R
Sampling rate                            : 48.0 kHz
Frame rate                               : 11.722 FPS (4095 SPF)
Bit depth                                : 24 bits
Compression mode                         : Lossless
Stream size                              : 35.2 MiB (46%)
Writing library                          : libFLAC 1.3.3 (UTC 2019-08-04)
Language                                 : Japanese
Default                                  : Yes
Forced                                   : No
Audio #2
ID                                       : 3
Format                                   : Opus
Codec ID                                 : A_OPUS
Duration                                 : 3 min 30 s
Bit rate                                 : 182 kb/s
Channel(s)                               : 2 channels
Channel layout                           : L R
Sampling rate                            : 48.0 kHz
Frame rate                               : 50.001 FPS (960 SPF)
Compression mode                         : Lossy
Stream size                              : 4.56 MiB (6%)
Language                                 : Japanese
Default                                  : No
Forced                                   : No
Audio #3
ID                                       : 4
Format                                   : Opus
Codec ID                                 : A_OPUS
Duration                                 : 3 min 30 s
Bit rate                                 : 175 kb/s
Channel(s)                               : 2 channels
Channel layout                           : L R
Sampling rate                            : 48.0 kHz
Frame rate                               : 50.001 FPS (960 SPF)
Compression mode                         : Lossy
Stream size                              : 4.39 MiB (6%)
Language                                 : Japanese
Default                                  : No
Forced                                   : No
  • BT列表

BT链接信息: [LoliHouse] 犬神同学和猫山同学 / Inugami-san to Nekoyama-san / 犬神さんと猫山さん [BDRip 1080p HEVC-10bit FLAC]

Magnet链接: magnet:?xt=urn:btih:Y4VE3JWTAHXCHHKCIBORT4QIDC6OWOB7

Magnet链接typeII: magnet:?xt=urn:btih:c72a4da6d301ee239d42405d19f20818bceb383f

PikPak載點: 保存至pikpak ?

弹幕播放链接: ddplay:magnet:?xt=urn:btih:Y4VE3JWTAHXCHHKCIBORT4QIDC6OWOB7 

提供最优质的资源集合

立即查看 了解详情