魔星字幕团[MagicStar] 这是恋爱! ~不良少年与白手杖女孩~ / 恋です! ~ヤンキー君と白杖ガール~ EP01 [WEBDL] [1080p] [HULU]【生】【附日字】

  • 所属分类:
    日剧
  • 发布时间: 2021/10/07 3:45
  • 种子下载: 下载种子/磁力链接
  • 文件大小: 1.4GB

簡介: 

HD 1080p from HULU JAPAN.
alt text
alt text

General Unique ID                      : 66641400795000658369807385370658474857 (0x3222AABC19F87856055259947D560B69) Complete name                  : Koi.Desu.Yankee.kun.to.Hakujou.Girl.EP01.1080p.HULU.WEB-DL.AAC2.0.H.264-MagicStar.mkv Format                         : Matroska Format version                 : Version 4 File size                      : 1.40 GiB Duration                       : 49 min 9 s Overall bit rate               : 4 072 kb/s Encoded date                   : UTC 2021-10-06 18:35:28 Writing application            : mkvmerge v50.0.0 ('Awakenings') 64-bit Writing library                : libebml v1.4.0   libmatroska v1.6.2 Cover                          : Yes Attachments                    : cover.png  Video ID                             : 1 Format                         : AVC Format/Info                    : Advanced Video Codec Format profile                 : [email protected] Format settings                : CABAC / 4 Ref Frames Format settings, CABAC         : Yes Format settings, Reference fra : 4 frames Codec ID                       : V_MPEG4/ISO/AVC Duration                       : 49 min 9 s Bit rate                       : 3 944 kb/s Width                          : 1 920 pixels Height                         : 1 080 pixels Display aspect ratio           : 16:9 Frame rate mode                : Constant Frame rate                     : 29.970 (29970/1000) FPS Original frame rate            : 29.970 (30000/1001) FPS Color space                    : YUV Chroma subsampling             : 4:2:0 Bit depth                      : 8 bits Scan type                      : Progressive Bits/(Pixel*Frame)             : 0.063 Stream size                    : 1.35 GiB (97%) Default                        : Yes Forced                         : No Color range                    : Limited Color primaries                : BT.709 Transfer characteristics       : BT.709 Matrix coefficients            : BT.709  Audio ID                             : 2 Format                         : AAC LC Format/Info                    : Advanced Audio Codec Low Complexity Codec ID                       : A_AAC-2 Duration                       : 49 min 9 s Bit rate                       : 125 kb/s Channel(s)                     : 2 channels Channel layout                 : L R Sampling rate                  : 48.0 kHz Frame rate                     : 46.875 FPS (1024 SPF) Compression mode               : Lossy Stream size                    : 44.1 MiB (3%) Language                       : Japanese Default                        : Yes Forced                         : No

  • BT列表

BT链接信息: [MagicStar] 这是恋爱! ~不良少年与白手杖女孩~ / 恋です! ~ヤンキー君と白杖ガール~ EP01 [WEBDL] [1080p] [HULU]【生】【附日字】

Magnet链接: magnet:?xt=urn:btih:7Z7OLXL32JYAKKZRY3KYM64WF2TJN5WR

Magnet链接typeII: magnet:?xt=urn:btih:fe7ee5dd7bd270052b31c6d5867b962ea696f6d1

PikPak載點: 保存至pikpak ?

弹幕播放链接: ddplay:magnet:?xt=urn:btih:7Z7OLXL32JYAKKZRY3KYM64WF2TJN5WR 

提供最优质的资源集合

立即查看 了解详情