LoliHouse[LoliHouse] 小森拒不了! / Komori-san wa Kotowarenai! [BDRip 1080p HEVC-10bit FLAC]

  • 所属分类:
    动漫 >  季度全集
  • 发布时间: 2021/10/05 21:40
  • 种子下载: 下载种子/磁力链接
  • 文件大小: 1.4GB

簡介: 

Poster

小森拒不了! / Komori-san wa Kotowarenai! / 小森さんは断れない!

压制:見崎かすみ@LoliHouse

原盘画质较好。原生作画分辨率720p。求逆后神经网络重新拉升。

English: The quality of the original source is good. Its native resolution is 720p. I inverse scaled it and re-scaled it using advanced method.

MediaInfo

General
Unique ID                                : 111419465929290481259223272899673195104 (0x53D29BCC0919B27B2DED34111FCA0260)
Complete name                            : W:\[LoliHouse] Komori-san wa Kotowarenai! [BDRip 1080p HEVC-10bit FLAC]\[LoliHouse] Komori-san wa Kotowarenai! - 01 [BDRip 1080p HEVC-10bit FLAC].mkv
Format                                   : Matroska
Format version                           : Version 4
File size                                : 101 MiB
Duration                                 : 2 min 1 s
Overall bit rate mode                    : Variable
Overall bit rate                         : 7 024 kb/s
Movie name                               : 小森さんは頼まれる?
Track name/Position                      : 1
Track name/Total                         : 12
Encoded by                               : 見崎かすみ
Encoded date                             : UTC 2021-10-04 13:21:08
Writing application                      : mkvmerge v61.0.0 ('So') 64-bit
Writing library                          : libebml v1.4.2   libmatroska v1.6.4
Video
ID                                       : 1
Format                                   : HEVC
Format/Info                              : High Efficiency Video Coding
Format profile                           : Main [email protected]@High
Codec ID                                 : V_MPEGH/ISO/HEVC
Duration                                 : 2 min 1 s
Bit rate                                 : 6 147 kb/s
Width                                    : 1 920 pixels
Height                                   : 1 080 pixels
Display aspect ratio                     : 16:9
Frame rate mode                          : Constant
Frame rate                               : 23.976 (24000/1001) FPS
Color space                              : YUV
Chroma subsampling                       : 4:2:0
Bit depth                                : 10 bits
Bits/(Pixel*Frame)                       : 0.124
Stream size                              : 88.7 MiB (88%)
Writing library                          : x265 3.5g2b25c9ba0 90:[Windows][clang 12.0.1][64 bit] Kasumi 10bit
Encoding settings                        : rc=crf / crf=15.0000 / qcomp=0.60 / qpstep=4 / stats-write=0 / stats-read=0 / no-lossless / no-cu-lossless / aq-mode=1 / aq-strength=1.00 / cbqpoffs=-2 / crqpoffs=-2 / ipratio=1.40 / pbratio=1.20 / psy-rd=1.80 / psy-rdoq=0.80 / deblock=-1:-1 / ref=5 / limit-refs=0 / no-limit-modes / bframes=8 / b-adapt=2 / bframe-bias=0 / b-pyramid / b-intra / weightp / weightb / min-keyint=1 / max-keyint=360 / rc-lookahead=80 / gop-lookahead=0 / scenecut=40 / hist-scenecut=0 / radl=0 / max-cu-size=32 / min-cu-size=8 / me=3 / subme=5 / merange=42 / rdoq-level=1 / rd=6 / rdpenalty=0 / dynamic-rd=0.00 / rd-refine / ----- / cutree / no-sao / rect / no-amp / no-open-gop / wpp / no-pmode / no-pme / no-psnr / no-ssim / nr-intra=0 / nr-inter=0 / no-constrained-intra / no-strong-intra-smoothing / max-tu-size=32 / tu-inter-depth=3 / tu-intra-depth=3 / limit-tu=0 / qg-size=32 / qpmax=69 / qpmin=0 / ----- / cpuid=1111039 / frame-threads=2 / numa-pools=16 / log-level=2 / input-csp=1 / input-res=1920x1080 / interlace=0 / level-idc=0 / high-tier=1 / uhd-bd=0 / no-allow-non-conformance / no-repeat-headers / no-aud / no-hrd / info / hash=0 / no-temporal-layers / lookahead-slices=0 / no-splice / no-intra-refresh / no-ssim-rd / signhide / no-tskip / max-merge=5 / temporal-mvp / no-frame-dup / no-hme / no-analyze-src-pics / no-sao-non-deblock / selective-sao=0 / no-early-skip / rskip / no-fast-intra / no-tskip-fast / no-splitrd-skip / zone-count=0 / no-strict-cbr / no-rc-grain / no-const-vbv / sar=1 / overscan=0 / videoformat=5 / range=0 / colorprim=2 / transfer=2 / colormatrix=1 / chromaloc=0 / display-window=0 / cll=0,0 / min-luma=0 / max-luma=1023 / log2-max-poc-lsb=8 / vui-timing-info / vui-hrd-info / slices=1 / no-opt-qp-pps / no-opt-ref-list-length-pps / no-multi-pass-opt-rps / scenecut-bias=0.05 / hist-threshold=0.03 / no-opt-cu-delta-qp / no-aq-motion / no-hdr10 / no-hdr10-opt / no-dhdr10-opt / no-idr-recovery-sei / analysis-reuse-level=0 / analysis-save-reuse-level=0 / analysis-load-reuse-level=0 / scale-factor=0 / refine-intra=0 / refine-inter=0 / refine-mv=1 / refine-ctu-distortion=0 / no-limit-sao / ctu-info=0 / no-lowpass-dct / refine-analysis-type=0 / copy-pic=1 / max-ausize-factor=1.0 / no-dynamic-refine / no-single-sei / no-hevc-aq / no-svt / no-field / qp-adaptation-range=1.00 / scenecut-aware-qp=0conformance-window-offsets / right=0 / bottom=0 / decoder-max-rate=0 / no-vbv-live-multi-pass
Default                                  : Yes
Forced                                   : No
Color range                              : Limited
Matrix coefficients                      : BT.709
Audio #1
ID                                       : 2
Format                                   : FLAC
Format/Info                              : Free Lossless Audio Codec
Codec ID                                 : A_FLAC
Duration                                 : 2 min 1 s
Bit rate mode                            : Variable
Bit rate                                 : 688 kb/s
Channel(s)                               : 2 channels
Channel layout                           : L R
Sampling rate                            : 48.0 kHz
Frame rate                               : 10.423 FPS (4605 SPF)
Bit depth                                : 16 bits
Compression mode                         : Lossless
Stream size                              : 9.93 MiB (10%)
Writing library                          : Lavf58.76.100
Language                                 : Japanese
Default                                  : Yes
Forced                                   : No
Audio #2
ID                                       : 3
Format                                   : Opus
Codec ID                                 : A_OPUS
Duration                                 : 2 min 1 s
Bit rate                                 : 185 kb/s
Channel(s)                               : 2 channels
Channel layout                           : L R
Sampling rate                            : 48.0 kHz
Frame rate                               : 50.006 FPS (960 SPF)
Compression mode                         : Lossy
Stream size                              : 2.67 MiB (3%)
Language                                 : Japanese
Default                                  : No
Forced                                   : No

Readme about JXL

附带的图片使用JPEG XL编码。JPEG XL是次时代的图片编码格式。你可以使用新版的ImageGlass或XnViewMP来预览。

The attached images are encoded in the format of JPEG XL. JPEG XL is the next-generation image format. You can use latest ImageGlass or XnViewMP to view them.

  • BT列表

BT链接信息: [LoliHouse] 小森拒不了! / Komori-san wa Kotowarenai! [BDRip 1080p HEVC-10bit FLAC]

Magnet链接: magnet:?xt=urn:btih:TRS7G44QKRAGK7ZI4SODMTZVK6OOF6DI

Magnet链接typeII: magnet:?xt=urn:btih:9c65f373905440657f28e49c364f35579ce2f868

PikPak載點: 保存至pikpak ?

弹幕播放链接: ddplay:magnet:?xt=urn:btih:TRS7G44QKRAGK7ZI4SODMTZVK6OOF6DI 

提供最优质的资源集合

立即查看 了解详情