魔星字幕团[MagicStar] Bank Over! ~史上最弱的劫匪~ / バンクオーバー!~史上最弱の強盗~ SP02 [WEBDL] [1080p] [HULU]【生】【附日字】

  • 所属分类:
    日剧
  • 发布时间: 2021/09/30 18:24
  • 种子下载: 下载种子/磁力链接
  • 文件大小: 1.3GB

簡介: 

HD 1080p from HULU JAPAN.
alt text
alt text

General Unique ID                      : 95779017205758624339955882626726867398 (0x480E5E236D02655FC4EACFB14A71B1C6) Complete name                  : Bank.Over.Shijou.Saijaku.no.Goutou.SP02.1080p.HULU.WEB-DL.AAC2.0.H.264-MagicStar.mkv Format                         : Matroska Format version                 : Version 4 File size                      : 1.31 GiB Duration                       : 46 min 4 s Overall bit rate               : 4 062 kb/s Encoded date                   : UTC 2021-09-29 22:41:28 Writing application            : mkvmerge v50.0.0 ('Awakenings') 64-bit Writing library                : libebml v1.4.0   libmatroska v1.6.2 Cover                          : Yes Attachments                    : cover.png  Video ID                             : 1 Format                         : AVC Format/Info                    : Advanced Video Codec Format profile                 : [email protected] Format settings                : CABAC / 4 Ref Frames Format settings, CABAC         : Yes Format settings, Reference fra : 4 frames Codec ID                       : V_MPEG4/ISO/AVC Duration                       : 46 min 3 s Bit rate                       : 3 934 kb/s Width                          : 1 920 pixels Height                         : 1 080 pixels Display aspect ratio           : 16:9 Frame rate mode                : Constant Frame rate                     : 29.970 (29970/1000) FPS Original frame rate            : 29.970 (30000/1001) FPS Color space                    : YUV Chroma subsampling             : 4:2:0 Bit depth                      : 8 bits Scan type                      : Progressive Bits/(Pixel*Frame)             : 0.063 Stream size                    : 1.27 GiB (97%) Default                        : Yes Forced                         : No Color range                    : Limited Color primaries                : BT.709 Transfer characteristics       : BT.709 Matrix coefficients            : BT.709  Audio ID                             : 2 Format                         : AAC LC Format/Info                    : Advanced Audio Codec Low Complexity Codec ID                       : A_AAC-2 Duration                       : 46 min 4 s Bit rate                       : 125 kb/s Channel(s)                     : 2 channels Channel layout                 : L R Sampling rate                  : 48.0 kHz Frame rate                     : 46.875 FPS (1024 SPF) Compression mode               : Lossy Stream size                    : 41.3 MiB (3%) Language                       : Japanese Default                        : Yes Forced                         : No

  • BT列表

BT链接信息: [MagicStar] Bank Over! ~史上最弱的劫匪~ / バンクオーバー!~史上最弱の強盗~ SP02 [WEBDL] [1080p] [HULU]【生】【附日字】

Magnet链接: magnet:?xt=urn:btih:ZNG4PBVX33AOAFZSEFPLERTI7MB2TGBB

Magnet链接typeII: magnet:?xt=urn:btih:cb4dc786b7dec0e01732215eb24668fb03a99821

PikPak載點: 保存至pikpak ?

弹幕播放链接: ddplay:magnet:?xt=urn:btih:ZNG4PBVX33AOAFZSEFPLERTI7MB2TGBB 

提供最优质的资源集合

立即查看 了解详情