魔星字幕团[MagicStar] 泳圈 -朋友以上, 出轨未满- / うきわ -友達以上、不倫未満- EP06 [WEBDL] [1080p] [PARAVI]【生】

  • 所属分类:
    日剧
  • 发布时间: 2021/09/18 0:34
  • 种子下载: 下载种子/磁力链接
  • 文件大小: 1.6GB

簡介: 

HD 1080p from Paravi.
alt text
alt text

General Unique ID                      : 111838840673426531097938695454138109970 (0x542360917AE96C9500285CE3CCF11012) Complete name                  : Ukiwa.Tomodachi.Ijou.Furin.Miman.EP06.1080p.PARAVI.WEB-DL.AAC2.0.H.264-MagicStar.mkv Format                         : Matroska Format version                 : Version 4 File size                      : 1.60 GiB Duration                       : 38 min 10 s Overall bit rate               : 6 005 kb/s Encoded date                   : UTC 2021-09-16 15:19:50 Writing application            : mkvmerge v50.0.0 ('Awakenings') 64-bit Writing library                : libebml v1.4.0   libmatroska v1.6.2 Cover                          : Yes Attachments                    : cover.png  Video ID                             : 1 Format                         : AVC Format/Info                    : Advanced Video Codec Format profile                 : [email protected] Format settings                : CABAC / 3 Ref Frames Format settings, CABAC         : Yes Format settings, Reference fra : 3 frames Format settings, GOP           : M=1, N=24 Codec ID                       : V_MPEG4/ISO/AVC Duration                       : 38 min 10 s Bit rate mode                  : Constant Bit rate                       : 5 970 kb/s Width                          : 1 920 pixels Height                         : 1 080 pixels Display aspect ratio           : 16:9 Frame rate mode                : Constant Frame rate                     : 23.976 (24000/1001) FPS Color space                    : YUV Chroma subsampling             : 4:2:0 Bit depth                      : 8 bits Scan type                      : Progressive Bits/(Pixel*Frame)             : 0.120 Stream size                    : 1.58 GiB (99%) Default                        : Yes Forced                         : No Color range                    : Limited Color primaries                : BT.709 Transfer characteristics       : BT.709 Matrix coefficients            : BT.709  Audio ID                             : 2 Format                         : AAC LC Format/Info                    : Advanced Audio Codec Low Complexity Codec ID                       : A_AAC-2 Duration                       : 38 min 10 s Bit rate                       : 64.0 kb/s Channel(s)                     : 2 channels Channel layout                 : L R Sampling rate                  : 48.0 kHz Frame rate                     : 46.875 FPS (1024 SPF) Compression mode               : Lossy Stream size                    : 17.5 MiB (1%) Language                       : Japanese Default                        : Yes Forced                         : No

  • BT列表

BT链接信息: [MagicStar] 泳圈 -朋友以上, 出轨未满- / うきわ -友達以上、不倫未満- EP06 [WEBDL] [1080p] [PARAVI]【生】

Magnet链接: magnet:?xt=urn:btih:X4M7N6QBNHXZWDPGC5BRBSYFW3WZTUPJ

Magnet链接typeII: magnet:?xt=urn:btih:bf19f6fa0169ef9b0de6174310cb05b6ed99d1e9

PikPak載點: 保存至pikpak ?

弹幕播放链接: ddplay:magnet:?xt=urn:btih:X4M7N6QBNHXZWDPGC5BRBSYFW3WZTUPJ 

提供最优质的资源集合

立即查看 了解详情