魔星字幕团[MagicStar] TOKYO MER ~不动的急救室~ / TOKYO MER ~走らない緊急救命室~ EP06 [WEBDL] [1080p] [PARAVI]【生】

  • 所属分类:
    日剧
  • 发布时间: 2021/09/13 10:17
  • 种子下载: 下载种子/磁力链接
  • 文件大小: 277.6MB

簡介: 

HD 1080p from Paravi. Paravi Original Story.
alt text
alt text

General Unique ID                      : 253044356795129010351564402519053786058 (0xBE5E9205CCB1B4A76616A65297E55BCA) Complete name                  : TOKYO.MER.Hashiranai.Kinkyuu.kyuumeishitsu.EP06.1080p.PARAVI.WEB-DL.AAC2.0.H.264-MagicStar.mkv Format                         : Matroska Format version                 : Version 4 File size                      : 278 MiB Duration                       : 6 min 45 s Overall bit rate               : 5 739 kb/s Encoded date                   : UTC 2021-09-13 02:05:50 Writing application            : mkvmerge v50.0.0 ('Awakenings') 64-bit Writing library                : libebml v1.4.0   libmatroska v1.6.2 Cover                          : Yes Attachments                    : cover.png  Video ID                             : 1 Format                         : AVC Format/Info                    : Advanced Video Codec Format profile                 : [email protected] Format settings                : CABAC / 3 Ref Frames Format settings, CABAC         : Yes Format settings, Reference fra : 3 frames Codec ID                       : V_MPEG4/ISO/AVC Duration                       : 6 min 45 s Bit rate mode                  : Constant Bit rate                       : 5 659 kb/s Nominal bit rate               : 5 959 kb/s Width                          : 1 920 pixels Height                         : 1 080 pixels Display aspect ratio           : 16:9 Frame rate mode                : Constant Frame rate                     : 29.970 (29970/1000) FPS Original frame rate            : 29.970 (30000/1001) FPS Color space                    : YUV Chroma subsampling             : 4:2:0 Bit depth                      : 8 bits Scan type                      : Progressive Bits/(Pixel*Frame)             : 0.091 Stream size                    : 274 MiB (99%) Default                        : Yes Forced                         : No Color range                    : Limited Color primaries                : BT.709 Transfer characteristics       : BT.709 Matrix coefficients            : BT.709  Audio ID                             : 2 Format                         : AAC LC Format/Info                    : Advanced Audio Codec Low Complexity Codec ID                       : A_AAC-2 Duration                       : 6 min 45 s Bit rate                       : 64.0 kb/s Channel(s)                     : 2 channels Channel layout                 : L R Sampling rate                  : 48.0 kHz Frame rate                     : 46.875 FPS (1024 SPF) Compression mode               : Lossy Stream size                    : 3.09 MiB (1%) Language                       : Japanese Default                        : Yes Forced                         : No

  • BT列表

BT链接信息: [MagicStar] TOKYO MER ~不动的急救室~ / TOKYO MER ~走らない緊急救命室~ EP06 [WEBDL] [1080p] [PARAVI]【生】

Magnet链接: magnet:?xt=urn:btih:GMOJHOQ2YJAYTZ2GE23AKUMPVBJL32LR

Magnet链接typeII: magnet:?xt=urn:btih:331c93ba1ac24189e74626b605518fa852bde971

PikPak載點: 保存至pikpak ?

弹幕播放链接: ddplay:magnet:?xt=urn:btih:GMOJHOQ2YJAYTZ2GE23AKUMPVBJL32LR 

提供最优质的资源集合

立即查看 了解详情