魔星字幕团[MagicStar] 她很漂亮 / 彼女はキレイだった EP09 [WEBDL] [1080p] [AMZN]【生】

  • 所属分类:
    日剧
  • 发布时间: 2021/09/11 10:25
  • 种子下载: 下载种子/磁力链接
  • 文件大小: 2.0GB

簡介: 

HD 1080p from Prime Video.
alt text
alt text

General Unique ID                      : 258292339727641373124692935483822861586 (0xC2514B8EDE011DCD56D4FC2AE2166D12) Complete name                  : Kanojo.wa.Kirei.datta.EP09.1080p.AMZN.WEB-DL.DDP2.0.H.264-MagicStar.mkv Format                         : Matroska Format version                 : Version 4 File size                      : 2.00 GiB Duration                       : 46 min 5 s Overall bit rate               : 6 220 kb/s Encoded date                   : UTC 2021-09-08 13:17:18 Writing application            : mkvmerge v50.0.0 ('Awakenings') 64-bit Writing library                : libebml v1.4.0   libmatroska v1.6.2  Video ID                             : 1 Format                         : AVC Format/Info                    : Advanced Video Codec Format profile                 : [email protected] Format settings                : CABAC / 4 Ref Frames Format settings, CABAC         : Yes Format settings, Reference fra : 4 frames Codec ID                       : V_MPEG4/ISO/AVC Duration                       : 46 min 4 s Bit rate                       : 5 994 kb/s Width                          : 1 920 pixels Height                         : 1 080 pixels Display aspect ratio           : 16:9 Frame rate mode                : Constant Frame rate                     : 29.970 (29970/1000) FPS Original frame rate            : 29.970 (30000/1001) FPS Color space                    : YUV Chroma subsampling             : 4:2:0 Bit depth                      : 8 bits Scan type                      : Progressive Bits/(Pixel*Frame)             : 0.096 Stream size                    : 1.93 GiB (96%) Default                        : Yes Forced                         : No Color range                    : Limited Color primaries                : BT.709 Transfer characteristics       : BT.709 Matrix coefficients            : BT.709  Audio ID                             : 2 Format                         : E-AC-3 Format/Info                    : Enhanced AC-3 Commercial name                : Dolby Digital Plus Codec ID                       : A_EAC3 Duration                       : 46 min 5 s Bit rate mode                  : Constant Bit rate                       : 224 kb/s Channel(s)                     : 2 channels Channel layout                 : L R Sampling rate                  : 48.0 kHz Frame rate                     : 31.250 FPS (1536 SPF) Compression mode               : Lossy Stream size                    : 73.8 MiB (4%) Language                       : Japanese Service kind                   : Complete Main Default                        : Yes Forced                         : No

  • BT列表

BT链接信息: [MagicStar] 她很漂亮 / 彼女はキレイだった EP09 [WEBDL] [1080p] [AMZN]【生】

Magnet链接: magnet:?xt=urn:btih:FC6CGX5WE5TRWNNCRJO3VS66CTTXS5I7

Magnet链接typeII: magnet:?xt=urn:btih:28bc235fb627671b35a28a5dbacbde14e779751f

PikPak載點: 保存至pikpak ?

弹幕播放链接: ddplay:magnet:?xt=urn:btih:FC6CGX5WE5TRWNNCRJO3VS66CTTXS5I7 

提供最优质的资源集合

立即查看 了解详情