魔星字幕团[MagicStar] 如果合您的耳朵的话。 / お耳に合いましたら。 EP09 [WEBDL] [1080p] [AMZN]【生】

  • 所属分类:
    日剧
  • 发布时间: 2021/09/11 10:22
  • 种子下载: 下载种子/磁力链接
  • 文件大小: 823.4MB

簡介: 

HD 1080p from Prime Video.
alt text
alt text

General Unique ID                      : 189279821145591645098230889432422978410 (0x8E65F7B0C8A20479BE6E6F127E5E936A) Complete name                  : Omimi.ni.Aimashitara.EP09.1080p.AMZN.WEB-DL.DDP2.0.H.264-MagicStar.mkv Format                         : Matroska Format version                 : Version 4 File size                      : 823 MiB Duration                       : 24 min 0 s Overall bit rate               : 4 794 kb/s Encoded date                   : UTC 2021-09-11 00:19:02 Writing application            : mkvmerge v50.0.0 ('Awakenings') 64-bit Writing library                : libebml v1.4.0   libmatroska v1.6.2  Video ID                             : 1 Format                         : AVC Format/Info                    : Advanced Video Codec Format profile                 : [email protected] Format settings                : CABAC / 4 Ref Frames Format settings, CABAC         : Yes Format settings, Reference fra : 4 frames Codec ID                       : V_MPEG4/ISO/AVC Duration                       : 24 min 0 s Bit rate                       : 4 569 kb/s Width                          : 1 920 pixels Height                         : 1 080 pixels Display aspect ratio           : 16:9 Frame rate mode                : Constant Frame rate                     : 23.976 (24000/1001) FPS Color space                    : YUV Chroma subsampling             : 4:2:0 Bit depth                      : 8 bits Scan type                      : Progressive Bits/(Pixel*Frame)             : 0.092 Stream size                    : 785 MiB (95%) Default                        : Yes Forced                         : No Color range                    : Limited Color primaries                : BT.709 Transfer characteristics       : BT.709 Matrix coefficients            : BT.709  Audio ID                             : 2 Format                         : E-AC-3 Format/Info                    : Enhanced AC-3 Commercial name                : Dolby Digital Plus Codec ID                       : A_EAC3 Duration                       : 24 min 0 s Bit rate mode                  : Constant Bit rate                       : 224 kb/s Channel(s)                     : 2 channels Channel layout                 : L R Sampling rate                  : 48.0 kHz Frame rate                     : 31.250 FPS (1536 SPF) Compression mode               : Lossy Stream size                    : 38.5 MiB (5%) Language                       : Japanese Service kind                   : Complete Main Default                        : Yes Forced                         : No

  • BT列表

BT链接信息: [MagicStar] 如果合您的耳朵的话。 / お耳に合いましたら。 EP09 [WEBDL] [1080p] [AMZN]【生】

Magnet链接: magnet:?xt=urn:btih:TBMB6XAGLV5RAKUDXURUOYBC3ZL4Y72B

Magnet链接typeII: magnet:?xt=urn:btih:98581f5c065d7b102a83bd23476022de57cc7f41

PikPak載點: 保存至pikpak ?

弹幕播放链接: ddplay:magnet:?xt=urn:btih:TBMB6XAGLV5RAKUDXURUOYBC3ZL4Y72B 

提供最优质的资源集合

立即查看 了解详情