魔星字幕团[MagicStar] 特利迦奥特曼 / ウルトラマントリガー EP07 [WEBDL] [1080p] [AMZN]【生】

  • 所属分类:
    特摄
  • 发布时间: 2021/09/11 10:36
  • 修改时间: 2021/09/11 10:36
  • 种子下载: 下载种子/磁力链接
  • 文件大小: 1.3GB

簡介: 

HD 1080p from Prime Video.
alt text
alt text

General Unique ID                      : 15303005249572550779907485962716508338 (0xB8340692E339EE6791FAC021B6AF0B2) Complete name                  : Ultraman.Trigger.EP07.1080p.AMZN.WEB-DL.DDP2.0.H.264-MagicStar.mkv Format                         : Matroska Format version                 : Version 4 File size                      : 1.35 GiB Duration                       : 24 min 36 s Overall bit rate               : 7 823 kb/s Encoded date                   : UTC 2021-09-11 00:22:05 Writing application            : mkvmerge v50.0.0 ('Awakenings') 64-bit Writing library                : libebml v1.4.0   libmatroska v1.6.2 Cover                          : Yes Attachments                    : cover.png  Video ID                             : 1 Format                         : AVC Format/Info                    : Advanced Video Codec Format profile                 : [email protected] Format settings                : CABAC / 4 Ref Frames Format settings, CABAC         : Yes Format settings, Reference fra : 4 frames Codec ID                       : V_MPEG4/ISO/AVC Duration                       : 24 min 36 s Bit rate                       : 7 584 kb/s Width                          : 1 920 pixels Height                         : 1 080 pixels Display aspect ratio           : 16:9 Frame rate mode                : Constant Frame rate                     : 23.976 (24000/1001) FPS Color space                    : YUV Chroma subsampling             : 4:2:0 Bit depth                      : 8 bits Scan type                      : Progressive Bits/(Pixel*Frame)             : 0.153 Stream size                    : 1.30 GiB (97%) Default                        : Yes Forced                         : No Color range                    : Limited Color primaries                : BT.709 Transfer characteristics       : BT.709 Matrix coefficients            : BT.709  Audio ID                             : 2 Format                         : E-AC-3 Format/Info                    : Enhanced AC-3 Commercial name                : Dolby Digital Plus Codec ID                       : A_EAC3 Duration                       : 24 min 36 s Bit rate mode                  : Constant Bit rate                       : 224 kb/s Channel(s)                     : 2 channels Channel layout                 : L R Sampling rate                  : 48.0 kHz Frame rate                     : 31.250 FPS (1536 SPF) Compression mode               : Lossy Stream size                    : 39.4 MiB (3%) Language                       : Japanese Service kind                   : Complete Main Default                        : Yes Forced                         : No

  • BT列表

BT链接信息: [MagicStar] 特利迦奥特曼 / ウルトラマントリガー EP07 [WEBDL] [1080p] [AMZN]【生】

Magnet链接: magnet:?xt=urn:btih:2OL5FNLJ72PYLEIITF3W5TDOX3MWYKEU

Magnet链接typeII: magnet:?xt=urn:btih:d397d2b569fe9f85910899776ecc6ebed96c2894

PikPak載點: 保存至pikpak ?

弹幕播放链接: ddplay:magnet:?xt=urn:btih:2OL5FNLJ72PYLEIITF3W5TDOX3MWYKEU 

提供最优质的资源集合

立即查看 了解详情