魔星字幕团[MagicStar] 秘密內幕 ~战斗吧! 派出所女子~ / ハコヅメ〜たたかう!交番女子〜 EP08 [WEBDL] [1080p] [HULU]【生】【附日字】

  • 所属分类:
    日剧
  • 发布时间: 2021/09/09 20:07
  • 种子下载: 下载种子/磁力链接
  • 文件大小: 1.5GB

簡介: 

HD 1080p from HULU JAPAN.
alt text
alt text

General Unique ID                      : 24537841026616427919966988977232128570 (0x1275D0F7C03563EB0E1AC1536E7FAA3A) Complete name                  : Hakozume.Tatakau.Kouban.Joshi.EP08.1080p.HULU.WEB-DL.AAC2.0.H.264-MagicStar.mkv Format                         : Matroska Format version                 : Version 4 File size                      : 1.47 GiB Duration                       : 51 min 30 s Overall bit rate               : 4 075 kb/s Encoded date                   : UTC 2021-09-08 14:44:44 Writing application            : mkvmerge v50.0.0 ('Awakenings') 64-bit Writing library                : libebml v1.4.0   libmatroska v1.6.2 Cover                          : Yes Attachments                    : cover.png  Video ID                             : 1 Format                         : AVC Format/Info                    : Advanced Video Codec Format profile                 : [email protected] Format settings                : CABAC / 4 Ref Frames Format settings, CABAC         : Yes Format settings, Reference fra : 4 frames Codec ID                       : V_MPEG4/ISO/AVC Duration                       : 51 min 30 s Bit rate                       : 3 947 kb/s Width                          : 1 920 pixels Height                         : 1 080 pixels Display aspect ratio           : 16:9 Frame rate mode                : Constant Frame rate                     : 29.970 (29970/1000) FPS Original frame rate            : 29.970 (30000/1001) FPS Color space                    : YUV Chroma subsampling             : 4:2:0 Bit depth                      : 8 bits Scan type                      : Progressive Bits/(Pixel*Frame)             : 0.064 Stream size                    : 1.42 GiB (97%) Default                        : Yes Forced                         : No Color range                    : Limited Color primaries                : BT.709 Transfer characteristics       : BT.709 Matrix coefficients            : BT.709  Audio ID                             : 2 Format                         : AAC LC Format/Info                    : Advanced Audio Codec Low Complexity Codec ID                       : A_AAC-2 Duration                       : 51 min 30 s Bit rate                       : 125 kb/s Channel(s)                     : 2 channels Channel layout                 : L R Sampling rate                  : 48.0 kHz Frame rate                     : 46.875 FPS (1024 SPF) Compression mode               : Lossy Stream size                    : 46.2 MiB (3%) Language                       : Japanese Default                        : Yes Forced                         : No

  • BT列表

BT链接信息: [MagicStar] 秘密內幕 ~战斗吧! 派出所女子~ / ハコヅメ〜たたかう!交番女子〜 EP08 [WEBDL] [1080p] [HULU]【生】【附日字】

Magnet链接: magnet:?xt=urn:btih:FOZLXJ4NOVKDCSU6P74AIGF535QJZU2E

Magnet链接typeII: magnet:?xt=urn:btih:2bb2bba78d7554314a9e7ff80418bddf609cd344

PikPak載點: 保存至pikpak ?

弹幕播放链接: ddplay:magnet:?xt=urn:btih:FOZLXJ4NOVKDCSU6P74AIGF535QJZU2E 

提供最优质的资源集合

立即查看 了解详情