LoliHouse[喵萌奶茶屋&LoliHouse] D4DJ First Mix [BDRip 1080p HEVC-10bit FLAC]

  • 所属分类:
    动漫 >  季度全集
  • 发布时间: 2021/09/07 15:39
  • 修改时间: 2021/09/07 15:57
  • 种子下载: 下载种子/磁力链接
  • 文件大小: 25.8GB

簡介: 

Poster

D4DJ First Mix

字幕:喵萌奶茶屋

压制:見崎かすみ@LoliHouse

本片与喵萌奶茶屋合作,感谢字幕组的辛勤劳动

原盘是经典的三次元画风 (注:三次元是制作公司的名字)。正片全程使用三次元祖传的三渲二技术祖宗之法不可易,线条充斥着低分辨率渲染造成的锯齿和过度锐化导致的振铃,看上去的直观感受就是“糊”(注:可参考苍钢和邦邦的画面)。同时,不知道是不是因为武士道经费没给够,平面部分就是“真”平面,大范围的纯色填充;背景也看起来非常贫穷的样子(想看武士道给够钱是什么效果?来,这里好康的)。我对此进行了强力的去振铃、抗锯齿。针对去振铃抗锯齿导致的锐度下降,我进行了主观性锐化。最后接以去色带和自适应降噪。

D4DJ = DDDD DJ = DD成双 DJ —— 見崎かすみ

警告

极小部分人可能会在看到特定视觉图像(包括可能出现在本番剧中的闪烁效果或图案)时出现癫痫症状。甚至没有癫痫史的人也可能具有一些可能会在观看闪烁画面时导致“光敏性癫痫发作”的未确诊症状。

如果你出现任何症状,请立即停止观看视频并咨询医生。

这类癫痫症可具有多种不同病状,包括头晕目眩、视力模糊、眼睛或面部抽搐、四肢抽搐、迷失方向感、精神错乱或短暂的意识丧失。癫痫发作也可能导致意识丧失或痉挛,进而可能导致患者因跌倒或撞击到旁边的物体而受伤。

你可通过采取以下预防措施降低光敏性癫痫发作的风险:1. 在光线明亮的房间内观看视频;2. 如果感到昏昏欲睡或疲劳,请勿观看视频。

如果你或你的亲人有癫痫史,请在观看视频前先咨询医生。

A very small percentage of people may experience a seizure when exposed to certain visual images, including flashing lights or patterns that may appear in this anime. Even people who have no history of seizures or epilepsy may have an undiagnosed condition that can cause these “photosensitive epileptic seizures” while watching videos.

Immediately stop watching and consult a doctor if you experience any symptoms.

These seizures may have a variety of symptoms, including lightheadedness, altered vision, eye or face twitching, jerking or shaking of arms or legs, disorientation, confusion, or momentary loss of awareness. Seizures may also cause loss of consciousness or convulsions that can lead to injury from falling down or striking nearby objects.

You may reduce risk of photosensitive epileptic seizures by taking the following precautions: 1. Watch in a well-lit room. 2. Do not watch if you are drowsy or fatigued.

If you or any of your relatives have a history of seizures or epilepsy, consult a doctor before watching videos.

转载来源

感谢以下BDMV、相关CD、扫图的放流者:

[Hi-Res][Dig Delight!/Direct Drive! Special Edition] 种田梨沙@U2
[EAC][Direct Drive!] 神代小祈@TSDM
[EAC][Discover Universe] 神代小祈@TSDM
[EAC][4U] [email protected]
[EAC][最頂点Peaky&Peaky!!] TSDM*
[EAC][D4DJ Special Disc (Happy Around! Ver.)] 种田梨沙@U2^
[EAC][D4DJ Special Disc (Peaky P-key Ver.)] 种田梨沙@U2^
[EAC][WOW WAR TONIGHT~時には起こせよムーヴメント~] TSDM*
[Hi-Res][WOW WAR TONIGHT~時には起こせよムーヴメント~] 种田梨沙@U2
[EAC][ぐるぐるDJ TURN!!] TSDM*
[Hi-Res][ぐるぐるDJ TURN!!] 种田梨沙@U2
[EAC][SHUFFLE HEART BEAT] 种田梨沙@U2^
[EAC][無敵☆moment] 种田梨沙@U2^
[EAC][Be with the world] 种田梨沙@U2^
[EAC][BOOM-BOOM SHAKE!] 种田梨沙@U2^
[EAC][クライノイド] 种田梨沙@U2^
[EAC][プティプランス] 种田梨沙@U2^

^: 应放流者要求,LoliHouse在转载这些EAC时将不携带cue、log及扫图
*: 应天使动漫的转载要求,同时为适应保种需要,LoliHouse在转载这些EAC时,将在CUE sheet内的COMMENT field和flac metadata中的comment field,注明“天使动漫自抓自扫/原帖:xxx”。这些标注将在音频播放时被显著地看到。请勿二次转载。

English

The original source is a typical SANZIGEN Inc. product. The whole anime uses 3D CG. The lines feature aliasing (due to low-res 3D rendering) and ringing (due to undue sharpen). These can be also seen in other SANZIGEN products like Arpeggio of Blue Steel and BanG Dream S2&S3. Meanwhile, the flat areas are really “flat”—nearly no textures and details! Given this visual quality, I did strong deringing and anti-aliasing. To preserve the sharpness, I did active sharpening. Finally I did debanding and adaptive denoising.

MediaInfo
General
Unique ID                                : 305550649324903328722326718222370269494 (0xE5DEEA1D13B4E32F97FB10621E0EE936)
Complete name                            : W:\[Nekomoe kissaten&LoliHouse] D4DJ First Mix [BDRip 1080p HEVC-10bit FLAC]\[Nekomoe kissaten&LoliHouse] D4DJ First Mix - 09 [BDRip 1080p HEVC-10bit FLAC].mkv
Format                                   : Matroska
Format version                           : Version 4
File size                                : 813 MiB
Duration                                 : 23 min 41 s
Overall bit rate mode                    : Variable
Overall bit rate                         : 4 796 kb/s
Movie name                               : #9 Encounter With Light
Encoded date                             : UTC 2021-08-10 11:49:18
Writing application                      : mkvmerge v60.0.0 ('Are We Copies?') 64-bit
Writing library                          : libebml v1.4.2   libmatroska v1.6.4
Video
ID                                       : 1
Format                                   : HEVC
Format/Info                              : High Efficiency Video Coding
Format profile                           : Main [email protected]@Main
Codec ID                                 : V_MPEGH/ISO/HEVC
Duration                                 : 23 min 41 s
Bit rate                                 : 3 369 kb/s
Width                                    : 1 920 pixels
Height                                   : 1 080 pixels
Display aspect ratio                     : 16:9
Frame rate mode                          : Constant
Frame rate                               : 23.976 (24000/1001) FPS
Color space                              : YUV
Chroma subsampling                       : 4:2:0
Bit depth                                : 10 bits
Bits/(Pixel*Frame)                       : 0.068
Stream size                              : 571 MiB (70%)
Writing library                          : x265 3.5g2b25c9ba0 45:[Windows][GCC 10.2.0][64 bit] Yuuki 10bit 8bit 12bit
Encoding settings                        : rc=crf / crf=16.0000 / qcomp=0.60 / qpstep=4 / stats-write=0 / stats-read=0 / no-lossless / no-cu-lossless / aq-mode=1 / aq-strength=0.70 / cbqpoffs=-2 / crqpoffs=-2 / ipratio=1.40 / pbratio=1.20 / psy-rd=2.00 / psy-rdoq=1.00 / deblock=-1:-1 / ref=5 / limit-refs=0 / no-limit-modes / bframes=8 / b-adapt=2 / bframe-bias=0 / b-pyramid / b-intra / weightp / weightb / min-keyint=1 / max-keyint=720 / rc-lookahead=80 / gop-lookahead=0 / scenecut=40 / hist-scenecut=0 / radl=0 / max-cu-size=32 / min-cu-size=8 / me=3 / subme=4 / merange=57 / rdoq-level=1 / rd=6 / rdpenalty=0 / dynamic-rd=0.00 / no-rd-refine / ----- / cutree / no-sao / no-rect / no-amp / open-gop / wpp / no-pmode / no-pme / no-psnr / no-ssim / nr-intra=0 / nr-inter=0 / no-constrained-intra / no-strong-intra-smoothing / max-tu-size=32 / tu-inter-depth=4 / tu-intra-depth=3 / limit-tu=2 / qg-size=32 / qpmax=69 / qpmin=0 / ----- / cpuid=1111039 / frame-threads=1 / numa-pools=16 / log-level=2 / input-csp=1 / input-res=1920x1080 / interlace=0 / level-idc=0 / high-tier=1 / uhd-bd=0 / no-allow-non-conformance / no-repeat-headers / no-aud / no-hrd / info / hash=0 / no-temporal-layers / lookahead-slices=0 / no-splice / no-intra-refresh / no-ssim-rd / signhide / no-tskip / max-merge=5 / temporal-mvp / no-frame-dup / no-hme / no-analyze-src-pics / no-sao-non-deblock / selective-sao=0 / no-early-skip / rskip / no-fast-intra / no-tskip-fast / no-splitrd-skip / zone-count=0 / no-strict-cbr / no-rc-grain / no-const-vbv / sar=1 / overscan=0 / videoformat=5 / range=0 / colorprim=1 / transfer=1 / colormatrix=1 / chromaloc=0 / display-window=0 / cll=0,0 / min-luma=0 / max-luma=1023 / log2-max-poc-lsb=8 / vui-timing-info / vui-hrd-info / slices=1 / no-opt-qp-pps / no-opt-ref-list-length-pps / no-multi-pass-opt-rps / scenecut-bias=0.05 / hist-threshold=0.03 / no-opt-cu-delta-qp / no-aq-motion / no-hdr10 / no-hdr10-opt / no-dhdr10-opt / no-idr-recovery-sei / analysis-reuse-level=0 / analysis-save-reuse-level=0 / analysis-load-reuse-level=0 / scale-factor=0 / refine-intra=0 / refine-inter=0 / refine-mv=1 / refine-ctu-distortion=0 / no-limit-sao / ctu-info=0 / no-lowpass-dct / refine-analysis-type=0 / copy-pic=1 / max-ausize-factor=1.0 / no-dynamic-refine / no-single-sei / no-hevc-aq / no-svt / no-field / qp-adaptation-range=1.00 / scenecut-aware-qp=0conformance-window-offsets / right=0 / bottom=0 / decoder-max-rate=0 / no-vbv-live-multi-pass
Default                                  : Yes
Forced                                   : No
Color range                              : Limited
Color primaries                          : BT.709
Transfer characteristics                 : BT.709
Matrix coefficients                      : BT.709
Audio
ID                                       : 2
Format                                   : FLAC
Format/Info                              : Free Lossless Audio Codec
Codec ID                                 : A_FLAC
Duration                                 : 23 min 41 s
Bit rate mode                            : Variable
Bit rate                                 : 1 425 kb/s
Channel(s)                               : 2 channels
Channel layout                           : L R
Sampling rate                            : 48.0 kHz
Frame rate                               : 11.719 FPS (4096 SPF)
Bit depth                                : 24 bits
Compression mode                         : Lossless
Stream size                              : 241 MiB (30%)
Writing library                          : libFLAC 1.3.2 (UTC 2017-01-01)
Language                                 : Japanese
Default                                  : Yes
Forced                                   : No
Menu
00:00:00.000                             : Chapter 01
00:01:24.001                             : Chapter 02
00:02:54.049                             : Chapter 03
00:12:56.067                             : Chapter 04
00:21:55.105                             : Chapter 05
00:23:25.112                             : Chapter 06
Readme about JXL

附带的扫图使用JPEG XL格式储存。JPEG XL是次世代图像编码格式。 食用方法

The attached scans are encoded in JPEG XL format. JPEG XL is the next-generation image encoding format. View methods

碎碎念

为了顺利地观看我们的作品,推荐大家使用以下播放器:

  • Windows: MPC-BE
  • macOS: IINA
  • iOS: nPlayer
  • Android: MX Player

人人为我,我为人人,为了各位观众能快速下载,请使用 uTorrent / qBittorrent 等正规 BT 软件下载,并保持开机上传,谢谢~

All for one, one for all. Please download file(s) with a regular BT client such as uTorrent / qBittorrent / etc. and keep its / their uploading status so that other audience can download it / them rapidly.

点击查看LoliHouse一周年公告&礼包

点击查看LoliHouse三周年纪念公告

Screenshots Comparison (right click on the image and open it in a new tab to see the full-size one)

Source Encode
↑↑ 两大DD头子

  • BT列表

BT链接信息: [喵萌奶茶屋&LoliHouse] D4DJ First Mix [BDRip 1080p HEVC-10bit FLAC]

Magnet链接: magnet:?xt=urn:btih:P4IKGOAS2YLO3NACRRZ7ACKZRUECASPQ

Magnet链接typeII: magnet:?xt=urn:btih:7f10a33812d616edb4028c73f009598d082049f0

PikPak載點: 保存至pikpak ?

弹幕播放链接: ddplay:magnet:?xt=urn:btih:P4IKGOAS2YLO3NACRRZ7ACKZRUECASPQ 

提供最优质的资源集合

立即查看 了解详情