LoliHouse[LoliHouse] 演剧偶像 / Gekidol [BDRip 1080p HEVC-10bit FLAC]

  • 所属分类:
    动漫 >  季度全集
  • 发布时间: 2021/09/06 14:34
  • 修改时间: 2021/09/06 14:36
  • 种子下载: 下载种子/磁力链接
  • 文件大小: 17.4GB

簡介: 

Poster

演剧偶像 / Gekidol / ゲキドル

压制:見崎かすみ@LoliHouse

感谢BDMV及扫图的放流者喵萌奶茶屋。

原盘画面较好。线条带有轻度锯齿。噪点细腻。我进行了抗锯齿、去色带、纹理增强、引导锐化、自适应噪点保护。

群友总是说我天天做偶像番,但我知道演剧偶像肯定不是偶像番 —— 見崎かすみ

English

The visual quality of the original source is not bad. There is mild aliasing. The noise is beautiful. pp: anti-aliasing, debanding, texture enhancing, guided sharpen, and adaptive noise preservation.

MediaInfo
General
Unique ID                                : 130138109850608232028518518018957048624 (0x61E7B0323F7F527E9C6741361982FB30)
Complete name                            : W:\[LoliHouse] Gekidol [BDRip 1080p HEVC-10bit FLAC]\[LoliHouse] Gekidol - 03 [BDRip 1080p HEVC-10bit FLAC].mkv
Format                                   : Matroska
Format version                           : Version 4
File size                                : 1.10 GiB
Duration                                 : 23 min 32 s
Overall bit rate mode                    : Variable
Overall bit rate                         : 6 699 kb/s
Encoded date                             : UTC 2021-09-05 02:54:29
Writing application                      : mkvmerge v60.0.0 ('Are We Copies?') 64-bit
Writing library                          : libebml v1.4.2   libmatroska v1.6.4
Video
ID                                       : 1
Format                                   : HEVC
Format/Info                              : High Efficiency Video Coding
Format profile                           : Main [email protected]@Main
Codec ID                                 : V_MPEGH/ISO/HEVC
Duration                                 : 23 min 32 s
Bit rate                                 : 5 305 kb/s
Width                                    : 1 920 pixels
Height                                   : 1 080 pixels
Display aspect ratio                     : 16:9
Frame rate mode                          : Constant
Frame rate                               : 23.976 (24000/1001) FPS
Color space                              : YUV
Chroma subsampling                       : 4:2:0
Bit depth                                : 10 bits
Bits/(Pixel*Frame)                       : 0.107
Stream size                              : 893 MiB (79%)
Writing library                          : x265 3.5g2b25c9ba0 45:[Windows][GCC 10.2.0][64 bit] Yuuki 10bit 8bit 12bit
Encoding settings                        : rc=crf / crf=14.0000 / qcomp=0.65 / qpstep=4 / stats-write=0 / stats-read=0 / no-lossless / no-cu-lossless / aq-mode=3 / aq-strength=0.80 / cbqpoffs=-2 / crqpoffs=-2 / ipratio=1.40 / pbratio=1.20 / psy-rd=2.50 / psy-rdoq=1.00 / deblock=-1:-1 / ref=5 / limit-refs=1 / limit-modes / bframes=8 / b-adapt=2 / bframe-bias=0 / b-pyramid / b-intra / weightp / weightb / min-keyint=1 / max-keyint=360 / rc-lookahead=80 / gop-lookahead=0 / scenecut=40 / hist-scenecut=0 / radl=0 / max-cu-size=32 / min-cu-size=8 / me=3 / subme=5 / merange=25 / rdoq-level=1 / rd=4 / rdpenalty=0 / dynamic-rd=0.00 / no-rd-refine / ----- / cutree / no-sao / no-rect / no-amp / no-open-gop / wpp / no-pmode / no-pme / no-psnr / no-ssim / nr-intra=0 / nr-inter=0 / no-constrained-intra / no-strong-intra-smoothing / max-tu-size=32 / tu-inter-depth=3 / tu-intra-depth=3 / limit-tu=4 / qg-size=32 / qpmax=69 / qpmin=0 / ----- / cpuid=1111039 / frame-threads=1 / numa-pools=8 / log-level=2 / input-csp=1 / input-res=1920x1080 / interlace=0 / level-idc=0 / high-tier=1 / uhd-bd=0 / no-allow-non-conformance / no-repeat-headers / no-aud / no-hrd / info / hash=0 / no-temporal-layers / lookahead-slices=0 / no-splice / no-intra-refresh / no-ssim-rd / signhide / no-tskip / max-merge=4 / temporal-mvp / no-frame-dup / no-hme / no-analyze-src-pics / no-sao-non-deblock / selective-sao=0 / no-early-skip / rskip / no-fast-intra / no-tskip-fast / no-splitrd-skip / zone-count=0 / no-strict-cbr / no-rc-grain / no-const-vbv / sar=1 / overscan=0 / videoformat=5 / range=0 / colorprim=2 / transfer=2 / colormatrix=1 / chromaloc=0 / display-window=0 / cll=0,0 / min-luma=0 / max-luma=1023 / log2-max-poc-lsb=8 / vui-timing-info / vui-hrd-info / slices=1 / no-opt-qp-pps / no-opt-ref-list-length-pps / no-multi-pass-opt-rps / scenecut-bias=0.05 / hist-threshold=0.03 / no-opt-cu-delta-qp / no-aq-motion / no-hdr10 / no-hdr10-opt / no-dhdr10-opt / no-idr-recovery-sei / analysis-reuse-level=0 / analysis-save-reuse-level=0 / analysis-load-reuse-level=0 / scale-factor=0 / refine-intra=0 / refine-inter=0 / refine-mv=1 / refine-ctu-distortion=0 / no-limit-sao / ctu-info=0 / no-lowpass-dct / refine-analysis-type=0 / copy-pic=1 / max-ausize-factor=1.0 / no-dynamic-refine / no-single-sei / no-hevc-aq / no-svt / no-field / qp-adaptation-range=1.00 / scenecut-aware-qp=0conformance-window-offsets / right=0 / bottom=0 / decoder-max-rate=0 / no-vbv-live-multi-pass
Default                                  : Yes
Forced                                   : No
Color range                              : Limited
Matrix coefficients                      : BT.709
Audio
ID                                       : 2
Format                                   : FLAC
Format/Info                              : Free Lossless Audio Codec
Codec ID                                 : A_FLAC
Duration                                 : 23 min 32 s
Bit rate mode                            : Variable
Bit rate                                 : 1 392 kb/s
Channel(s)                               : 2 channels
Channel layout                           : L R
Sampling rate                            : 48.0 kHz
Frame rate                               : 11.719 FPS (4096 SPF)
Bit depth                                : 24 bits
Compression mode                         : Lossless
Stream size                              : 234 MiB (21%)
Writing library                          : libFLAC 1.3.2 (UTC 2017-01-01)
Language                                 : Japanese
Default                                  : Yes
Forced                                   : No
Menu
00:00:00.000                             : ja:アバン
00:00:45.045                             : ja:OP
00:02:15.010                             : ja:A-PART
00:12:46.057                             : ja:B-PART
00:21:31.040                             : ja:ED
00:23:01.005                             : ja:予告
Readme about JXL

附带的扫图使用JPEG XL格式储存。JPEG XL是次世代图像编码格式。 食用方法

The attached scans are encoded in JPEG XL format. JPEG XL is the next-generation image encoding format. View methods

友链字幕

感谢喵萌奶茶屋的辛勤劳动

碎碎念

为了顺利地观看我们的作品,推荐大家使用以下播放器:

  • Windows: MPC-BE
  • macOS: IINA
  • iOS: nPlayer
  • Android: MX Player

人人为我,我为人人,为了各位观众能快速下载,请使用 uTorrent / qBittorrent 等正规 BT 软件下载,并保持开机上传,谢谢~

All for one, one for all. Please download file(s) with a regular BT client such as uTorrent / qBittorrent / etc. and keep its / their uploading status so that other audience can download it / them rapidly.

点击查看LoliHouse一周年公告&礼包

点击查看LoliHouse三周年纪念公告

Screenshots Comparison (right click on the image and open it in a new tab to see the full-size one)

Source Encode

  • BT列表

BT链接信息: [LoliHouse] 演剧偶像 / Gekidol [BDRip 1080p HEVC-10bit FLAC]

Magnet链接: magnet:?xt=urn:btih:IVVQ32OLGY45OQJL5MS4IJZFQBNTFZQO

Magnet链接typeII: magnet:?xt=urn:btih:456b0de9cb3639d7412beb25c42725805b32e60e

PikPak載點: 保存至pikpak ?

弹幕播放链接: ddplay:magnet:?xt=urn:btih:IVVQ32OLGY45OQJL5MS4IJZFQBNTFZQO 

提供最优质的资源集合

立即查看 了解详情