魔星字幕团[MagicStar] 桑道 2021 / サ道 2021 EP10 [WEBDL] [1080p] [PARAVI]【生】

  • 所属分类:
    日剧
  • 发布时间: 2021/09/04 21:06
  • 种子下载: 下载种子/磁力链接
  • 文件大小: 1.0GB

簡介: 

HD 1080p from Paravi.
alt text
alt text

General Unique ID                      : 284714995883435124553764136017319813820 (0xD6321D161F249E819AEB368CB7F1E2BC) Complete name                  : Sadou.2021.EP10.1080p.PARAVI.WEB-DL.AAC2.0.H.264-MagicStar.mkv Format                         : Matroska Format version                 : Version 4 File size                      : 1.01 GiB Duration                       : 24 min 0 s Overall bit rate               : 5 997 kb/s Encoded date                   : UTC 2021-09-04 11:05:39 Writing application            : mkvmerge v50.0.0 ('Awakenings') 64-bit Writing library                : libebml v1.4.0   libmatroska v1.6.2 Cover                          : Yes Attachments                    : cover.png  Video ID                             : 1 Format                         : AVC Format/Info                    : Advanced Video Codec Format profile                 : [email protected] Format settings                : CABAC / 3 Ref Frames Format settings, CABAC         : Yes Format settings, Reference fra : 3 frames Codec ID                       : V_MPEG4/ISO/AVC Duration                       : 24 min 0 s Bit rate mode                  : Constant Bit rate                       : 5 982 kb/s Width                          : 1 920 pixels Height                         : 1 080 pixels Display aspect ratio           : 16:9 Frame rate mode                : Constant Frame rate                     : 23.976 (24000/1001) FPS Color space                    : YUV Chroma subsampling             : 4:2:0 Bit depth                      : 8 bits Scan type                      : Progressive Bits/(Pixel*Frame)             : 0.120 Stream size                    : 1 017 MiB (99%) Default                        : Yes Forced                         : No Color range                    : Limited Color primaries                : BT.709 Transfer characteristics       : BT.709 Matrix coefficients            : BT.709  Audio ID                             : 2 Format                         : AAC LC Format/Info                    : Advanced Audio Codec Low Complexity Codec ID                       : A_AAC-2 Duration                       : 24 min 0 s Bit rate                       : 63.9 kb/s Channel(s)                     : 2 channels Channel layout                 : L R Sampling rate                  : 48.0 kHz Frame rate                     : 46.875 FPS (1024 SPF) Compression mode               : Lossy Stream size                    : 11.0 MiB (1%) Language                       : Japanese Default                        : Yes Forced                         : No

  • BT列表

BT链接信息: [MagicStar] 桑道 2021 / サ道 2021 EP10 [WEBDL] [1080p] [PARAVI]【生】

Magnet链接: magnet:?xt=urn:btih:DSNTKEXDR7BWTBPSEPHBS57JODQAGL5D

Magnet链接typeII: magnet:?xt=urn:btih:1c9b3512e38fc36985f223ce1977e970e0032fa3

PikPak載點: 保存至pikpak ?

弹幕播放链接: ddplay:magnet:?xt=urn:btih:DSNTKEXDR7BWTBPSEPHBS57JODQAGL5D 

提供最优质的资源集合

立即查看 了解详情