魔星字幕团[MagicStar] 孤独的美食家 第九季 / 孤独のグルメ Season9 EP09 [WEBDL] [1080p] [PARAVI]【生】

  • 所属分类:
    日剧
  • 发布时间: 2021/09/04 21:04
  • 种子下载: 下载种子/磁力链接
  • 文件大小: 1.3GB

簡介: 

HD 1080p from Paravi.
alt text
alt text

General Unique ID                      : 168375221465677487074250706232417816006 (0x7EABE359F48ACC48CC8413C1C8858DC6) Complete name                  : Kodoku.no.Gurume.Season9.EP09.1080p.PARAVI.WEB-DL.AAC2.0.H.264-MagicStar.mkv Format                         : Matroska Format version                 : Version 4 File size                      : 1.25 GiB Duration                       : 29 min 55 s Overall bit rate               : 5 999 kb/s Encoded date                   : UTC 2021-09-04 11:05:00 Writing application            : mkvmerge v50.0.0 ('Awakenings') 64-bit Writing library                : libebml v1.4.0   libmatroska v1.6.2 Cover                          : Yes Attachments                    : cover.png  Video ID                             : 1 Format                         : AVC Format/Info                    : Advanced Video Codec Format profile                 : [email protected] Format settings                : CABAC / 3 Ref Frames Format settings, CABAC         : Yes Format settings, Reference fra : 3 frames Codec ID                       : V_MPEG4/ISO/AVC Duration                       : 29 min 55 s Bit rate mode                  : Constant Bit rate                       : 5 989 kb/s Width                          : 1 920 pixels Height                         : 1 080 pixels Display aspect ratio           : 16:9 Frame rate mode                : Constant Frame rate                     : 29.970 (29970/1000) FPS Original frame rate            : 29.970 (30000/1001) FPS Color space                    : YUV Chroma subsampling             : 4:2:0 Bit depth                      : 8 bits Scan type                      : Progressive Bits/(Pixel*Frame)             : 0.096 Stream size                    : 1.24 GiB (99%) Default                        : Yes Forced                         : No Color range                    : Limited Color primaries                : BT.709 Transfer characteristics       : BT.709 Matrix coefficients            : BT.709  Audio ID                             : 2 Format                         : AAC LC Format/Info                    : Advanced Audio Codec Low Complexity Codec ID                       : A_AAC-2 Duration                       : 29 min 55 s Bit rate                       : 64.0 kb/s Channel(s)                     : 2 channels Channel layout                 : L R Sampling rate                  : 48.0 kHz Frame rate                     : 46.875 FPS (1024 SPF) Compression mode               : Lossy Stream size                    : 13.7 MiB (1%) Language                       : Japanese Default                        : Yes Forced                         : No

  • BT列表

BT链接信息: [MagicStar] 孤独的美食家 第九季 / 孤独のグルメ Season9 EP09 [WEBDL] [1080p] [PARAVI]【生】

Magnet链接: magnet:?xt=urn:btih:E65PAAZKKSWF6FO4PI3OCTZFHGW3UORY

Magnet链接typeII: magnet:?xt=urn:btih:27baf0032a54ac5f15dc7a36e14f2539adba3a38

PikPak載點: 保存至pikpak ?

弹幕播放链接: ddplay:magnet:?xt=urn:btih:E65PAAZKKSWF6FO4PI3OCTZFHGW3UORY 

提供最优质的资源集合

立即查看 了解详情