魔星字幕团[MagicStar] 她很漂亮 / 彼女はキレイだった EP08 [WEBDL] [1080p] [AMZN]【生】

  • 所属分类:
    日剧
  • 发布时间: 2021/09/03 9:27
  • 种子下载: 下载种子/磁力链接
  • 文件大小: 2.0GB

簡介: 

HD 1080p from Prime Video.
alt text
alt text

General Unique ID                      : 217528775308234962377880053945050735617 (0xA3A684A99ECFB7B7A3C6185A9B722401) Complete name                  : Kanojo.wa.Kirei.datta.EP08.1080p.AMZN.WEB-DL.DDP2.0.H.264-MagicStar.mkv Format                         : Matroska Format version                 : Version 4 File size                      : 2.02 GiB Duration                       : 46 min 20 s Overall bit rate               : 6 247 kb/s Encoded date                   : UTC 2021-09-02 09:14:27 Writing application            : mkvmerge v50.0.0 ('Awakenings') 64-bit Writing library                : libebml v1.4.0   libmatroska v1.6.2  Video ID                             : 1 Format                         : AVC Format/Info                    : Advanced Video Codec Format profile                 : [email protected] Format settings                : CABAC / 4 Ref Frames Format settings, CABAC         : Yes Format settings, Reference fra : 4 frames Codec ID                       : V_MPEG4/ISO/AVC Duration                       : 46 min 19 s Bit rate                       : 6 021 kb/s Width                          : 1 920 pixels Height                         : 1 080 pixels Display aspect ratio           : 16:9 Frame rate mode                : Constant Frame rate                     : 29.970 (29970/1000) FPS Original frame rate            : 29.970 (30000/1001) FPS Color space                    : YUV Chroma subsampling             : 4:2:0 Bit depth                      : 8 bits Scan type                      : Progressive Bits/(Pixel*Frame)             : 0.097 Stream size                    : 1.95 GiB (96%) Default                        : Yes Forced                         : No Color range                    : Limited Color primaries                : BT.709 Transfer characteristics       : BT.709 Matrix coefficients            : BT.709  Audio ID                             : 2 Format                         : E-AC-3 Format/Info                    : Enhanced AC-3 Commercial name                : Dolby Digital Plus Codec ID                       : A_EAC3 Duration                       : 46 min 20 s Bit rate mode                  : Constant Bit rate                       : 224 kb/s Channel(s)                     : 2 channels Channel layout                 : L R Sampling rate                  : 48.0 kHz Frame rate                     : 31.250 FPS (1536 SPF) Compression mode               : Lossy Stream size                    : 74.2 MiB (4%) Language                       : Japanese Service kind                   : Complete Main Default                        : Yes Forced                         : No

  • BT列表

BT链接信息: [MagicStar] 她很漂亮 / 彼女はキレイだった EP08 [WEBDL] [1080p] [AMZN]【生】

Magnet链接: magnet:?xt=urn:btih:7INUDOPIMBUJ4ETHGYMOPAFDL6CMRGQA

Magnet链接typeII: magnet:?xt=urn:btih:fa1b41b9e860689e12673618e780a35f84c89a00

PikPak載點: 保存至pikpak ?

弹幕播放链接: ddplay:magnet:?xt=urn:btih:7INUDOPIMBUJ4ETHGYMOPAFDL6CMRGQA 

提供最优质的资源集合

立即查看 了解详情