魔星字幕团[MagicStar] 泳圈 -他人以上, 朋友未满- / うきわ -他人以上、友達未満- EP04 [WEBDL] [1080p] [PARAVI]【生】

  • 所属分类:
    日剧
  • 发布时间: 2021/09/02 20:04
  • 种子下载: 下载种子/磁力链接
  • 文件大小: 547.7MB

簡介: 

HD 1080p from Paravi. Paravi Original Story.
alt text
alt text

General Unique ID                      : 283583072766582902660960332674505443363 (0xD5581CF7CEDBDDAE091CC6A6E5A90823) Complete name                  : Ukiwa.Tanin.Ijou.Tomodachi.Miman.EP04.1080p.PARAVI.WEB-DL.AAC2.0.H.264-MagicStar.mkv Format                         : Matroska Format version                 : Version 4 File size                      : 548 MiB Duration                       : 12 min 48 s Overall bit rate               : 5 977 kb/s Encoded date                   : UTC 2021-09-02 09:06:37 Writing application            : mkvmerge v50.0.0 ('Awakenings') 64-bit Writing library                : libebml v1.4.0   libmatroska v1.6.2 Cover                          : Yes Attachments                    : cover.png  Video ID                             : 1 Format                         : AVC Format/Info                    : Advanced Video Codec Format profile                 : [email protected] Format settings                : CABAC / 3 Ref Frames Format settings, CABAC         : Yes Format settings, Reference fra : 3 frames Codec ID                       : V_MPEG4/ISO/AVC Duration                       : 12 min 48 s Bit rate mode                  : Constant Bit rate                       : 5 997 kb/s Width                          : 1 920 pixels Height                         : 1 080 pixels Display aspect ratio           : 16:9 Frame rate mode                : Constant Frame rate                     : 23.976 (24000/1001) FPS Color space                    : YUV Chroma subsampling             : 4:2:0 Bit depth                      : 8 bits Scan type                      : Progressive Bits/(Pixel*Frame)             : 0.121 Stream size                    : 541 MiB (99%) Default                        : Yes Forced                         : No Color range                    : Limited Color primaries                : BT.709 Transfer characteristics       : BT.709 Matrix coefficients            : BT.709  Audio ID                             : 2 Format                         : AAC LC Format/Info                    : Advanced Audio Codec Low Complexity Codec ID                       : A_AAC-2 Duration                       : 12 min 48 s Bit rate                       : 64.0 kb/s Channel(s)                     : 2 channels Channel layout                 : L R Sampling rate                  : 48.0 kHz Frame rate                     : 46.875 FPS (1024 SPF) Compression mode               : Lossy Stream size                    : 5.86 MiB (1%) Language                       : Japanese Default                        : Yes Forced                         : No

  • BT列表

BT链接信息: [MagicStar] 泳圈 -他人以上, 朋友未满- / うきわ -他人以上、友達未満- EP04 [WEBDL] [1080p] [PARAVI]【生】

Magnet链接: magnet:?xt=urn:btih:M2MIVYOH2FOJ7FQFJSVFRTLIP6LG2DXA

Magnet链接typeII: magnet:?xt=urn:btih:66988ae1c7d15c9f96054caa58cd687f966d0ee0

PikPak載點: 保存至pikpak ?

弹幕播放链接: ddplay:magnet:?xt=urn:btih:M2MIVYOH2FOJ7FQFJSVFRTLIP6LG2DXA 

提供最优质的资源集合

立即查看 了解详情