LoliHouse[百冬练习组&LoliHouse] BanG Dream! 少女乐团派对!☆PICO~大份~ / Garupa☆PICO~OHMORI~ [BDRip 1080p HEVC-10bit FLAC][简繁外挂字幕]

  • 所属分类:
    动漫 >  季度全集
  • 发布时间: 2021/09/02 18:57
  • 修改时间: 2021/09/02 23:57
  • 种子下载: 下载种子/磁力链接
  • 文件大小: 5.1GB

簡介: 

BanG Dream! 少女乐团派对!☆PICO~大份~ / BanG Dream! Girls Band Party!☆PICO~OHMORI~ / BanG Dream! ガルパ☆ピコ~大盛り~

LIVEHOUSE “CiRCLE”,神秘的上古遗迹,频发的诡异事件,35位少女的探险怪谭!

字幕:百冬练习组

压制:黄前久美子@LoliHouse

整理:見崎かすみ@LoliHouse

本片与百冬练习组合作。感谢字幕组的辛勤劳动。

感谢BDMV和CD的放流者[email protected]、見崎かすみ@LoliHouse

原片正片整体质量较好。线条部分有明显的3D作画所形成的锯齿,我进行了强力抗锯齿。同时还伴有轻微的振铃,故我采取了较小力度的去振铃处理。平面部分问题不大,对基底和噪点层进行不同程度的较小力度去色带后搭配了自适应降噪。

邦邦要火!—— 黄前久美子

蚌埠住了☆—— 見崎かすみ

English

LIVEHOUSE “CiRCLE”, the hidden holy ground of band girls. Upon this stage, the chibi characters of BanG Dream! unite once again!

The quality of the original source is basically good. There is conspicuous aliasing resulting from 3D rendering. There is also some mild ringing. We did strong anti-aliasing and mild deringing. The remaining aliasing after AA considered acceptable. The flat area is good. We did separated debanding and adaptive denoising.

MediaInfo
General
Unique ID                                : 147232943451991812648443620207171681345 (0x6EC40890CC5BDF61E0E624E8EF473C41)
Complete name                            : W:\[hyakuhuyu&LoliHouse] BanG Dream! Girls Band Party!☆PICO~OHMORI~ [BDRip 1080p HEVC-10bit FLAC]\[hyakuhuyu&LoliHouse] BanG Dream! Girls Band Party!☆PICO~OHMORI~ - 01 [BDRip 1080p HEVC-10bit FLAC].mkv
Format                                   : Matroska
Format version                           : Version 4
File size                                : 172 MiB
Duration                                 : 3 min 0 s
Overall bit rate mode                    : Variable
Overall bit rate                         : 8 010 kb/s
Encoded date                             : UTC 2021-06-11 06:27:40
Writing application                      : mkvmerge v48.0.0 ('Fortress Around Your Heart') 64-bit
Writing library                          : libebml v1.4.0   libmatroska v1.6.0
Video
ID                                       : 1
Format                                   : HEVC
Format/Info                              : High Efficiency Video Coding
Format profile                           : Main [email protected]@High
Codec ID                                 : V_MPEGH/ISO/HEVC
Duration                                 : 3 min 0 s
Bit rate                                 : 6 443 kb/s
Width                                    : 1 920 pixels
Height                                   : 1 080 pixels
Display aspect ratio                     : 16:9
Frame rate mode                          : Constant
Frame rate                               : 23.976 (24000/1001) FPS
Color space                              : YUV
Chroma subsampling                       : 4:2:0
Bit depth                                : 10 bits
Bits/(Pixel*Frame)                       : 0.130
Stream size                              : 138 MiB (80%)
Writing library                          : x265 3.4
Encoding settings                        : cpuid=1111039 / frame-threads=4 / numa-pools=  / wpp / no-pmode / no-pme / no-psnr / no-ssim / log-level=2 / input-csp=1 / input-res=1920x1080 / interlace=0 / total-frames=0 / level-idc=41 / high-tier=1 / uhd-bd=0 / ref=4 / no-allow-non-conformance / no-repeat-headers / annexb / no-aud / no-hrd / info / hash=0 / no-temporal-layers / no-open-gop / min-keyint=1 / keyint=240 / gop-lookahead=0 / bframes=8 / b-adapt=2 / b-pyramid / bframe-bias=0 / rc-lookahead=80 / lookahead-slices=0 / scenecut=40 / hist-scenecut=0 / radl=0 / no-splice / no-intra-refresh / ctu=32 / min-cu-size=8 / rect / no-amp / max-tu-size=32 / tu-inter-depth=3 / tu-intra-depth=3 / limit-tu=3 / rdoq-level=1 / dynamic-rd=0.00 / no-ssim-rd / signhide / no-tskip / nr-intra=0 / nr-inter=0 / no-constrained-intra / no-strong-intra-smoothing / max-merge=4 / limit-refs=1 / limit-modes / me=3 / subme=5 / merange=32 / temporal-mvp / no-frame-dup / no-hme / weightp / weightb / no-analyze-src-pics / deblock=-1:-1 / no-sao / no-sao-non-deblock / rd=5 / selective-sao=0 / no-early-skip / rskip / no-fast-intra / no-tskip-fast / no-cu-lossless / b-intra / no-splitrd-skip / rdpenalty=0 / psy-rd=1.50 / psy-rdoq=1.00 / rd-refine / no-lossless / cbqpoffs=-2 / crqpoffs=-2 / rc=crf / crf=15.0 / qcomp=0.65 / qpstep=4 / stats-write=0 / stats-read=0 / vbv-maxrate=30000 / vbv-bufsize=40000 / vbv-init=0.9 / crf-max=0.0 / crf-min=0.0 / ipratio=1.40 / pbratio=1.20 / aq-mode=3 / aq-strength=0.70 / cutree / zone-count=0 / no-strict-cbr / qg-size=8 / no-rc-grain / qpmax=69 / qpmin=0 / no-const-vbv / sar=0 / overscan=0 / videoformat=5 / range=0 / colorprim=2 / transfer=2 / colormatrix=1 / chromaloc=0 / display-window=0 / cll=0,0 / min-luma=0 / max-luma=1023 / log2-max-poc-lsb=8 / vui-timing-info / vui-hrd-info / slices=1 / no-opt-qp-pps / no-opt-ref-list-length-pps / no-multi-pass-opt-rps / scenecut-bias=0.05 / hist-threshold=0.01 / no-opt-cu-delta-qp / no-aq-motion / no-hdr10 / no-hdr10-opt / no-dhdr10-opt / no-idr-recovery-sei / analysis-reuse-level=0 / analysis-save-reuse-level=0 / analysis-load-reuse-level=0 / scale-factor=0 / refine-intra=0 / refine-inter=0 / refine-mv=1 / refine-ctu-distortion=0 / no-limit-sao / ctu-info=0 / no-lowpass-dct / refine-analysis-type=0 / copy-pic=1 / max-ausize-factor=1.0 / no-dynamic-refine / no-single-sei / no-hevc-aq / no-svt / no-field / qp-adaptation-range=1.00 / no-scenecut-aware-qpconformance-window-offsets / right=0 / bottom=0 / decoder-max-rate=0
Default                                  : Yes
Forced                                   : No
Color range                              : Limited
Matrix coefficients                      : BT.709
Audio
ID                                       : 2
Format                                   : FLAC
Format/Info                              : Free Lossless Audio Codec
Codec ID                                 : A_FLAC
Duration                                 : 3 min 0 s
Bit rate mode                            : Variable
Bit rate                                 : 1 565 kb/s
Channel(s)                               : 2 channels
Channel layout                           : L R
Sampling rate                            : 48.0 kHz
Frame rate                               : 11.722 FPS (4095 SPF)
Bit depth                                : 24 bits
Compression mode                         : Lossless
Stream size                              : 33.6 MiB (20%)
Writing library                          : libFLAC 1.3.2 (UTC 2017-01-01)
Language                                 : Japanese
Default                                  : Yes
Forced                                   : No
Readme about JXL

膜膜MIR酱!

碎碎念

为了顺利地观看我们的作品,推荐大家使用以下播放器:

  • Windows: MPC-BE
  • macOS: IINA
  • iOS: nPlayer
  • Android: MX Player

人人为我,我为人人,为了各位观众能快速下载,请使用 uTorrent / qBittorrent 等正规 BT 软件下载,并保持开机上传,谢谢~

All for one, one for all. Please download file(s) with a regular BT client such as uTorrent / qBittorrent / etc. and keep its / their uploading status so that other audience can download it / them rapidly.

点击查看LoliHouse一周年公告&礼包

点击查看LoliHouse三周年纪念公告

真封面

Screenshots Comparison (right click on the image and open it in a new tab to see the full-size one)

Source Encode

  • BT列表

BT链接信息: [百冬练习组&LoliHouse] BanG Dream! 少女乐团派对!☆PICO~大份~ / Garupa☆PICO~OHMORI~ [BDRip 1080p HEVC-10bit FLAC][简繁外挂字幕]

Magnet链接: magnet:?xt=urn:btih:ZNJNBA2GOBFRGYJ6TI73OJQSMCPNZXRM

Magnet链接typeII: magnet:?xt=urn:btih:cb52d08346704b13613e9a3fb72612609edcde2c

PikPak載點: 保存至pikpak ?

弹幕播放链接: ddplay:magnet:?xt=urn:btih:ZNJNBA2GOBFRGYJ6TI73OJQSMCPNZXRM 

包含壓縮包或可執行文件,請仔細辨別,查毒.

提供最优质的资源集合

立即查看 了解详情