魔星字幕团[MagicStar] 八月在夜晚的击球中心。 / 八月は夜のバッティングセンターで。 EP07 [WEBDL] [1080p] [AMZN]【生】

  • 所属分类:
    日剧
  • 发布时间: 2021/08/29 23:12
  • 种子下载: 下载种子/磁力链接
  • 文件大小: 693.2MB

簡介: 

HD 1080p from Prime Video.
alt text
alt text

General Unique ID                      : 124549365490630220722513835838363836770 (0x5DB355D34A4E6EA7BC38643FEA12A162) Complete name                  : Hachigatsu.wa.Yoru.no.Batting.Center.de.EP07.1080p.AMZN.WEB-DL.DDP2.0.H.264-MagicStar.mkv Format                         : Matroska Format version                 : Version 4 File size                      : 693 MiB Duration                       : 24 min 0 s Overall bit rate               : 4 038 kb/s Encoded date                   : UTC 2021-08-26 12:04:14 Writing application            : mkvmerge v50.0.0 ('Awakenings') 64-bit Writing library                : libebml v1.4.0   libmatroska v1.6.2  Video ID                             : 1 Format                         : AVC Format/Info                    : Advanced Video Codec Format profile                 : [email protected] Format settings                : CABAC / 4 Ref Frames Format settings, CABAC         : Yes Format settings, Reference fra : 4 frames Codec ID                       : V_MPEG4/ISO/AVC Duration                       : 24 min 0 s Bit rate                       : 3 812 kb/s Width                          : 1 920 pixels Height                         : 1 080 pixels Display aspect ratio           : 16:9 Frame rate mode                : Constant Frame rate                     : 23.976 (24000/1001) FPS Color space                    : YUV Chroma subsampling             : 4:2:0 Bit depth                      : 8 bits Scan type                      : Progressive Bits/(Pixel*Frame)             : 0.077 Stream size                    : 654 MiB (94%) Default                        : Yes Forced                         : No Color range                    : Limited Color primaries                : BT.709 Transfer characteristics       : BT.709 Matrix coefficients            : BT.709  Audio ID                             : 2 Format                         : E-AC-3 Format/Info                    : Enhanced AC-3 Commercial name                : Dolby Digital Plus Codec ID                       : A_EAC3 Duration                       : 24 min 0 s Bit rate mode                  : Constant Bit rate                       : 224 kb/s Channel(s)                     : 2 channels Channel layout                 : L R Sampling rate                  : 48.0 kHz Frame rate                     : 31.250 FPS (1536 SPF) Compression mode               : Lossy Stream size                    : 38.5 MiB (6%) Language                       : Japanese Service kind                   : Complete Main Default                        : Yes Forced                         : No

  • BT列表

BT链接信息: [MagicStar] 八月在夜晚的击球中心。 / 八月は夜のバッティングセンターで。 EP07 [WEBDL] [1080p] [AMZN]【生】

Magnet链接: magnet:?xt=urn:btih:G3EWNND5ZFZZYJ3ZGVFETBKLLKKPEJEI

Magnet链接typeII: magnet:?xt=urn:btih:36c966b47dc9739c2779354a49854b5a94f22488

PikPak載點: 保存至pikpak ?

弹幕播放链接: ddplay:magnet:?xt=urn:btih:G3EWNND5ZFZZYJ3ZGVFETBKLLKKPEJEI 

提供最优质的资源集合

立即查看 了解详情