魔星字幕团[MagicStar] 24小时TV 剧集特别篇 – 让学生重启人生的学校 / 生徒が人生をやり直せる学校 [WEBDL] [1080p] [HULU]【生】

  • 所属分类:
    日剧
  • 发布时间: 2021/08/28 10:32
  • 种子下载: 下载种子/磁力链接
  • 文件大小: 2.7GB

簡介: 

HD 1080p from HULU JAPAN.
alt text
alt text

General Unique ID                      : 262381531436112646576323978463682296294 (0xC564D8466E75256A6E4D6B10F368F9E6) Complete name                  : Seito.ga.Jinsei.wo.Yarinaoseru.Gakkou.SP.1080p.HULU.WEB-DL.AAC2.0.H.264-MagicStar.mkv Format                         : Matroska Format version                 : Version 4 File size                      : 2.75 GiB Duration                       : 1 h 36 min Overall bit rate               : 4 070 kb/s Encoded date                   : UTC 2021-08-28 00:11:30 Writing application            : mkvmerge v50.0.0 ('Awakenings') 64-bit Writing library                : libebml v1.4.0   libmatroska v1.6.2 Cover                          : Yes Attachments                    : cover.png  Video ID                             : 1 Format                         : AVC Format/Info                    : Advanced Video Codec Format profile                 : [email protected] Format settings                : CABAC / 4 Ref Frames Format settings, CABAC         : Yes Format settings, Reference fra : 4 frames Codec ID                       : V_MPEG4/ISO/AVC Duration                       : 1 h 36 min Bit rate                       : 3 942 kb/s Width                          : 1 920 pixels Height                         : 1 080 pixels Display aspect ratio           : 16:9 Frame rate mode                : Constant Frame rate                     : 29.970 (29970/1000) FPS Original frame rate            : 29.970 (30000/1001) FPS Color space                    : YUV Chroma subsampling             : 4:2:0 Bit depth                      : 8 bits Scan type                      : Progressive Bits/(Pixel*Frame)             : 0.063 Stream size                    : 2.66 GiB (97%) Default                        : Yes Forced                         : No Color range                    : Limited Color primaries                : BT.709 Transfer characteristics       : BT.709 Matrix coefficients            : BT.709  Audio ID                             : 2 Format                         : AAC LC Format/Info                    : Advanced Audio Codec Low Complexity Codec ID                       : A_AAC-2 Duration                       : 1 h 36 min Bit rate                       : 125 kb/s Channel(s)                     : 2 channels Channel layout                 : L R Sampling rate                  : 48.0 kHz Frame rate                     : 46.875 FPS (1024 SPF) Compression mode               : Lossy Stream size                    : 86.7 MiB (3%) Language                       : Japanese Default                        : Yes Forced                         : No

  • BT列表

BT链接信息: [MagicStar] 24小时TV 剧集特别篇 – 让学生重启人生的学校 / 生徒が人生をやり直せる学校 [WEBDL] [1080p] [HULU]【生】

Magnet链接: magnet:?xt=urn:btih:7LG7TLPPO66KP7VTCFVQBLGELBYAWNMN

Magnet链接typeII: magnet:?xt=urn:btih:facdf9adef77bca7feb3116b00acc458700b358d

PikPak載點: 保存至pikpak ?

弹幕播放链接: ddplay:magnet:?xt=urn:btih:7LG7TLPPO66KP7VTCFVQBLGELBYAWNMN 

提供最优质的资源集合

立即查看 了解详情