LoliHouse[LoliHouse] 22/7 [BDRip 1080p HEVC-10bit FLAC][无字幕][Fin]

  • 所属分类:
    动漫 >  季度全集
  • 发布时间: 2021/08/29 18:57
  • 修改时间: 2021/08/29 21:48
  • 种子下载: 下载种子/磁力链接
  • 文件大小: 17.0GB

簡介: 

22/7(ナナブンノニジュウニ)

脚本:見崎かすみ@LoliHouse

压制:[email protected]

感谢BDMV及扫图的放流者:伊藤美来@U2

原盘画质极佳,噪点细腻优美,几乎看不出色带。作画分辨率虽然不是原生1080p,但已然非常接近。我将其还原至作画分辨率以后,使用神经网络缩放算法重新拉升至1080p。经过处理后,锯齿消失不见,线条更加顺滑,锐度些微提升,噪点完美保留。

English

The quality of the original source is excellent. The noises are beautiful. Banding is covered up. Although the native resolution is not 1080p, it is near. I rescaled it. After my processing, aliasing is gone, lines are smoother and a little sharper, and noises are well preserved.

MediaInfo
General
Unique ID                                : 220286990537838382722845520763046197696 (0xA5B9BB2C39B82A2DAAF0C106F45DF9C0)
Complete name                            : W:\[LoliHouse] 22/7 [Ma10p_1080p]\[LoliHouse] 22/7 [02][Ma10p_1080p][x265_flac_aac].mkv
Format                                   : Matroska
Format version                           : Version 4
File size                                : 883 MiB
Duration                                 : 24 min 9 s
Overall bit rate mode                    : Variable
Overall bit rate                         : 5 110 kb/s
Encoded date                             : UTC 2021-06-16 16:11:20
Writing application                      : mkvmerge v48.0.0 ('Fortress Around Your Heart') 64-bit
Writing library                          : libebml v1.4.0   libmatroska v1.6.0
Video
ID                                       : 1
Format                                   : HEVC
Format/Info                              : High Efficiency Video Coding
Format profile                           : Main [email protected]@Main
Codec ID                                 : V_MPEGH/ISO/HEVC
Duration                                 : 24 min 9 s
Bit rate                                 : 3 589 kb/s
Width                                    : 1 920 pixels
Height                                   : 1 080 pixels
Display aspect ratio                     : 16:9
Frame rate mode                          : Constant
Frame rate                               : 23.976 (24000/1001) FPS
Color space                              : YUV
Chroma subsampling                       : 4:2:0
Bit depth                                : 10 bits
Bits/(Pixel*Frame)                       : 0.072
Stream size                              : 620 MiB (70%)
Writing library                          : x265 3.5ce882936d:[Windows][GCC 10.2.0][64 bit] 10bit
Encoding settings                        : cpuid=1111039 / frame-threads=4 / numa-pools=  / wpp / no-pmode / no-pme / no-psnr / no-ssim / log-level=2 / csv / csv-log-level=1 / input-csp=1 / input-res=1920x1080 / interlace=0 / total-frames=0 / level-idc=0 / high-tier=1 / uhd-bd=0 / ref=5 / no-allow-non-conformance / no-repeat-headers / annexb / no-aud / no-hrd / info / hash=0 / no-temporal-layers / no-open-gop / min-keyint=1 / keyint=360 / gop-lookahead=0 / bframes=8 / b-adapt=2 / b-pyramid / bframe-bias=0 / rc-lookahead=80 / lookahead-slices=0 / scenecut=40 / hist-scenecut=0 / radl=0 / no-splice / no-intra-refresh / ctu=32 / min-cu-size=8 / no-rect / no-amp / max-tu-size=32 / tu-inter-depth=3 / tu-intra-depth=3 / limit-tu=4 / rdoq-level=1 / dynamic-rd=0.00 / no-ssim-rd / signhide / no-tskip / nr-intra=0 / nr-inter=0 / no-constrained-intra / no-strong-intra-smoothing / max-merge=4 / limit-refs=1 / limit-modes / me=3 / subme=5 / merange=25 / temporal-mvp / no-frame-dup / no-hme / weightp / weightb / no-analyze-src-pics / deblock=-1:-1 / no-sao / no-sao-non-deblock / rd=6 / selective-sao=0 / no-early-skip / rskip / no-fast-intra / no-tskip-fast / no-cu-lossless / b-intra / no-splitrd-skip / rdpenalty=0 / psy-rd=2.20 / psy-rdoq=1.00 / rd-refine / no-lossless / cbqpoffs=-2 / crqpoffs=-2 / rc=crf / crf=15.0 / qcomp=0.70 / qpstep=4 / stats-write=0 / stats-read=0 / ipratio=1.40 / pbratio=1.20 / aq-mode=3 / aq-strength=0.80 / cutree / zone-count=0 / no-strict-cbr / qg-size=8 / no-rc-grain / qpmax=69 / qpmin=0 / no-const-vbv / sar=0 / overscan=0 / videoformat=5 / range=0 / colorprim=2 / transfer=2 / colormatrix=1 / chromaloc=0 / display-window=0 / cll=0,0 / min-luma=0 / max-luma=1023 / log2-max-poc-lsb=8 / vui-timing-info / vui-hrd-info / slices=1 / no-opt-qp-pps / no-opt-ref-list-length-pps / no-multi-pass-opt-rps / scenecut-bias=0.05 / hist-threshold=0.03 / no-opt-cu-delta-qp / no-aq-motion / no-hdr10 / no-hdr10-opt / no-dhdr10-opt / no-idr-recovery-sei / analysis-reuse-level=0 / analysis-save-reuse-level=0 / analysis-load-reuse-level=0 / scale-factor=0 / refine-intra=0 / refine-inter=0 / refine-mv=1 / refine-ctu-distortion=0 / no-limit-sao / ctu-info=0 / no-lowpass-dct / refine-analysis-type=0 / copy-pic=1 / max-ausize-factor=1.0 / no-dynamic-refine / no-single-sei / no-hevc-aq / no-svt / no-field / qp-adaptation-range=1.00 / scenecut-aware-qp=0conformance-window-offsets / right=0 / bottom=0 / decoder-max-rate=0 / no-vbv-live-multi-pass
Default                                  : Yes
Forced                                   : No
Color range                              : Limited
Matrix coefficients                      : BT.709
Audio #1
ID                                       : 2
Format                                   : FLAC
Format/Info                              : Free Lossless Audio Codec
Codec ID                                 : A_FLAC
Duration                                 : 24 min 9 s
Bit rate mode                            : Variable
Bit rate                                 : 1 347 kb/s
Channel(s)                               : 2 channels
Channel layout                           : L R
Sampling rate                            : 48.0 kHz
Frame rate                               : 11.719 FPS (4096 SPF)
Bit depth                                : 24 bits
Compression mode                         : Lossless
Stream size                              : 233 MiB (26%)
Writing library                          : libFLAC 1.3.2 (UTC 2017-01-01)
Language                                 : Japanese
Default                                  : Yes
Forced                                   : No
Audio #2
ID                                       : 3
Format                                   : AAC LC
Format/Info                              : Advanced Audio Codec Low Complexity
Codec ID                                 : A_AAC-2
Duration                                 : 24 min 9 s
Bit rate                                 : 172 kb/s
Channel(s)                               : 2 channels
Channel layout                           : L R
Sampling rate                            : 48.0 kHz
Frame rate                               : 46.875 FPS (1024 SPF)
Compression mode                         : Lossy
Stream size                              : 29.7 MiB (3%)
Language                                 : Japanese
Default                                  : No
Forced                                   : No
Menu
00:00:00.000                             : AVANT
00:01:16.994                             : OPENING
00:02:48.043                             : A PART
00:10:33.049                             : B PART
00:22:26.053                             : ENDING
00:23:55.059                             : TRAILER
Readme about AVIF

附带的扫图使用AVIF格式储存。你可以使用Chrome浏览器预览。

碎碎念

为了顺利地观看我们的作品,推荐大家使用以下播放器:

  • Windows: MPC-BE
  • macOS: IINA
  • iOS: nPlayer
  • Android: MX Player

人人为我,我为人人,为了各位观众能快速下载,请使用 uTorrent / qBittorrent 等正规 BT 软件下载,并保持开机上传,谢谢~

All for one, one for all. Please download file(s) with a regular BT client such as uTorrent / qBittorrent / etc. and keep its / their uploading status so that other audience can download it / them rapidly.

点击查看LoliHouse一周年公告&礼包

点击查看LoliHouse三周年纪念公告

Screenshots

摸了。(这都什么时候压的作品了,我原盘都找不到了。)
保熟。(这盘裸压都能保熟。)

www

  • BT列表

BT链接信息: [LoliHouse] 22/7 [BDRip 1080p HEVC-10bit FLAC][无字幕][Fin]

Magnet链接: magnet:?xt=urn:btih:HLW753GP4LD6G4SKJ3YNQXZT6PBLMS5R

Magnet链接typeII: magnet:?xt=urn:btih:3aedfeeccfe2c7e3724a4ef0d85f33f3c2b64bb1

PikPak載點: 保存至pikpak ?

弹幕播放链接: ddplay:magnet:?xt=urn:btih:HLW753GP4LD6G4SKJ3YNQXZT6PBLMS5R 

提供最优质的资源集合

立即查看 了解详情