魔星字幕团[MagicStar] 我的杀意恋爱了 / ボクの殺意が恋をした EP06 [WEBDL] [1080p] [HULU]【生】【附日字】

  • 所属分类:
    日剧
  • 发布时间: 2021/08/21 9:58
  • 种子下载: 下载种子/磁力链接
  • 文件大小: 1.4GB

簡介: 

HD 1080p from HULU JAPAN.
alt text
alt text

General Unique ID                      : 42033326309697989627350719454135704345 (0x1F9F52FD795146FDDF545AA32A9FDB19) Complete name                  : Boku.no.Satsui.ga.Koi.wo.Shita.EP06.1080p.HULU.WEB-DL.AAC2.0.H.264-MagicStar.mkv Format                         : Matroska Format version                 : Version 4 File size                      : 1.29 GiB Duration                       : 46 min 1 s Overall bit rate               : 4 018 kb/s Encoded date                   : UTC 2021-08-18 00:03:14 Writing application            : mkvmerge v50.0.0 ('Awakenings') 64-bit Writing library                : libebml v1.4.0   libmatroska v1.6.2 Cover                          : Yes Attachments                    : cover.png  Video ID                             : 1 Format                         : AVC Format/Info                    : Advanced Video Codec Format profile                 : [email protected] Format settings                : CABAC / 4 Ref Frames Format settings, CABAC         : Yes Format settings, Reference fra : 4 frames Codec ID                       : V_MPEG4/ISO/AVC Duration                       : 46 min 0 s Bit rate                       : 3 889 kb/s Width                          : 1 920 pixels Height                         : 1 080 pixels Display aspect ratio           : 16:9 Frame rate mode                : Constant Frame rate                     : 29.970 (29970/1000) FPS Original frame rate            : 29.970 (30000/1001) FPS Color space                    : YUV Chroma subsampling             : 4:2:0 Bit depth                      : 8 bits Scan type                      : Progressive Bits/(Pixel*Frame)             : 0.063 Stream size                    : 1.25 GiB (97%) Default                        : Yes Forced                         : No Color range                    : Limited Color primaries                : BT.709 Transfer characteristics       : BT.709 Matrix coefficients            : BT.709  Audio ID                             : 2 Format                         : AAC LC Format/Info                    : Advanced Audio Codec Low Complexity Codec ID                       : A_AAC-2 Duration                       : 46 min 1 s Bit rate                       : 125 kb/s Channel(s)                     : 2 channels Channel layout                 : L R Sampling rate                  : 48.0 kHz Frame rate                     : 46.875 FPS (1024 SPF) Compression mode               : Lossy Stream size                    : 41.3 MiB (3%) Language                       : Japanese Default                        : Yes Forced                         : No

  • BT列表

BT链接信息: [MagicStar] 我的杀意恋爱了 / ボクの殺意が恋をした EP06 [WEBDL] [1080p] [HULU]【生】【附日字】

Magnet链接: magnet:?xt=urn:btih:SYVXP4FLFDEEXSY2PERYWR62KJKMQI7K

Magnet链接typeII: magnet:?xt=urn:btih:962b77f0ab28c84bcb1a79238b47da5254c823ea

PikPak載點: 保存至pikpak ?

弹幕播放链接: ddplay:magnet:?xt=urn:btih:SYVXP4FLFDEEXSY2PERYWR62KJKMQI7K 

提供最优质的资源集合

立即查看 了解详情