魔星字幕团【2003日影】[MagicStar] 光明的未来 / アカルイミライ 2003 [WEBDL] [1080p] [AMZN]【生】

  • 所属分类:
    日剧
  • 发布时间: 2021/08/15 17:43
  • 种子下载: 下载种子/磁力链接
  • 文件大小: 11.4GB

簡介: 

HD 1080p from Prime Video.
alt text
alt text

General Unique ID                      : 168984880957200172151369318553200484328 (0x7F214DE291A94CCD82F43DAED3F5DFE8) Complete name                  : Akarui.Mirai.2003.1080p.AMZN.WEB-DL.DDP2.0.H.264-MagicStar.mkv Format                         : Matroska Format version                 : Version 4 File size                      : 11.4 GiB Duration                       : 1 h 55 min Overall bit rate               : 14.2 Mb/s Encoded date                   : UTC 2021-08-15 08:20:18 Writing application            : mkvmerge v52.0.0 ('Secret For The Mad') 64-bit Writing library                : libebml v1.4.1   libmatroska v1.6.2  Video ID                             : 1 Format                         : AVC Format/Info                    : Advanced Video Codec Format profile                 : [email protected] Format settings                : CABAC / 4 Ref Frames Format settings, CABAC         : Yes Format settings, Reference fra : 4 frames Codec ID                       : V_MPEG4/ISO/AVC Duration                       : 1 h 55 min Bit rate                       : 14.0 Mb/s Width                          : 1 920 pixels Height                         : 1 080 pixels Display aspect ratio           : 16:9 Frame rate mode                : Constant Frame rate                     : 23.976 (24000/1001) FPS Color space                    : YUV Chroma subsampling             : 4:2:0 Bit depth                      : 8 bits Scan type                      : Progressive Bits/(Pixel*Frame)             : 0.281 Stream size                    : 11.2 GiB (98%) Default                        : Yes Forced                         : No Color range                    : Limited Color primaries                : BT.709 Transfer characteristics       : BT.709 Matrix coefficients            : BT.709  Audio ID                             : 2 Format                         : E-AC-3 Format/Info                    : Enhanced AC-3 Commercial name                : Dolby Digital Plus Codec ID                       : A_EAC3 Duration                       : 1 h 55 min Bit rate mode                  : Constant Bit rate                       : 224 kb/s Channel(s)                     : 2 channels Channel layout                 : L R Sampling rate                  : 48.0 kHz Frame rate                     : 31.250 FPS (1536 SPF) Compression mode               : Lossy Stream size                    : 184 MiB (2%) Language                       : Japanese Service kind                   : Complete Main Default                        : Yes Forced                         : No

  • BT列表

BT链接信息: 【2003日影】[MagicStar] 光明的未来 / アカルイミライ 2003 [WEBDL] [1080p] [AMZN]【生】

Magnet链接: magnet:?xt=urn:btih:XIOPPXMHDAN5VV24AR3W2FY3O5HLK22C

Magnet链接typeII: magnet:?xt=urn:btih:ba1cf7dd87181bdad75c04776d171b774eb56b42

PikPak載點: 發送到PikPak bot ?

弹幕播放链接: ddplay:magnet:?xt=urn:btih:XIOPPXMHDAN5VV24AR3W2FY3O5HLK22C 

提供最优质的资源集合

立即查看 了解详情