魔星字幕团[MagicStar] 泳圈 -他人以上, 朋友未满- / うきわ -他人以上、友達未満- EP01 [WEBDL] [1080p] [PARAVI]【生】

  • 所属分类:
    日剧
  • 发布时间: 2021/08/12 18:02
  • 修改时间: 2021/08/12 18:02
  • 种子下载: 下载种子/磁力链接
  • 文件大小: 518.3MB

簡介: 

HD 1080p from Paravi. Paravi Original Story.
alt text
alt text

General Unique ID                      : 23098280612779524038742891137902454664 (0x11609128DA18B0ACC4EA9C69E0CE2788) Complete name                  : Ukiwa.Tanin.Ijou.Tomodachi.Miman.EP01.1080p.PARAVI.WEB-DL.AAC2.0.H.264-MagicStar.mkv Format                         : Matroska Format version                 : Version 4 File size                      : 518 MiB Duration                       : 12 min 11 s Overall bit rate               : 5 943 kb/s Encoded date                   : UTC 2021-08-12 09:48:49 Writing application            : mkvmerge v52.0.0 ('Secret For The Mad') 64-bit Writing library                : libebml v1.4.1   libmatroska v1.6.2 Cover                          : Yes Attachments                    : cover.png  Video ID                             : 1 Format                         : AVC Format/Info                    : Advanced Video Codec Format profile                 : [email protected] Format settings                : CABAC / 3 Ref Frames Format settings, CABAC         : Yes Format settings, Reference fra : 3 frames Codec ID                       : V_MPEG4/ISO/AVC Duration                       : 12 min 11 s Bit rate mode                  : Constant Bit rate                       : 5 980 kb/s Width                          : 1 920 pixels Height                         : 1 080 pixels Display aspect ratio           : 16:9 Frame rate mode                : Constant Frame rate                     : 23.976 (24000/1001) FPS Color space                    : YUV Chroma subsampling             : 4:2:0 Bit depth                      : 8 bits Scan type                      : Progressive Bits/(Pixel*Frame)             : 0.120 Stream size                    : 512 MiB (99%) Default                        : Yes Forced                         : No Color range                    : Limited Color primaries                : BT.709 Transfer characteristics       : BT.709 Matrix coefficients            : BT.709  Audio ID                             : 2 Format                         : AAC LC Format/Info                    : Advanced Audio Codec Low Complexity Codec ID                       : A_AAC-2 Duration                       : 12 min 11 s Bit rate                       : 64.0 kb/s Channel(s)                     : 2 channels Channel layout                 : L R Sampling rate                  : 48.0 kHz Frame rate                     : 46.875 FPS (1024 SPF) Compression mode               : Lossy Stream size                    : 5.58 MiB (1%) Language                       : Japanese Default                        : Yes Forced                         : No

  • BT列表

BT链接信息: [MagicStar] 泳圈 -他人以上, 朋友未满- / うきわ -他人以上、友達未満- EP01 [WEBDL] [1080p] [PARAVI]【生】

Magnet链接: magnet:?xt=urn:btih:NC4SFUNY4V5YAPBOVS73FIYL6DI4BPAW

Magnet链接typeII: magnet:?xt=urn:btih:68b922d1b8e57b803c2eacbfb2a30bf0d1c0bc16

PikPak載點: 發送到PikPak bot ?

弹幕播放链接: ddplay:magnet:?xt=urn:btih:NC4SFUNY4V5YAPBOVS73FIYL6DI4BPAW 

提供最优质的资源集合

立即查看 了解详情