魔星字幕团[MagicStar] Voice 2 110紧急指令室 / ボイスII 110緊急指令室 EP02 [WEBDL] [1080p] [HULU]【生】【附日字】

  • 所属分类:
    日剧
  • 发布时间: 2021/07/20 17:56
  • 种子下载: 下载种子/磁力链接
  • 文件大小: 1.6GB

簡介: 

HD 1080p from HULU JAPAN.
alt text
alt text

General Unique ID                      : 185246682707698846598514118113472331959 (0x8B5D369CF5B2B0F6302BB79A3074C0B7) Complete name                  : Voice.2.EP02.1080p.HULU.WEB-DL.AAC2.0.H.264-MagicStar..mkv Format                         : Matroska Format version                 : Version 4 File size                      : 1.56 GiB Duration                       : 46 min 3 s Overall bit rate               : 4 846 kb/s Encoded date                   : UTC 2021-07-20 03:53:36 Writing application            : mkvmerge v52.0.0 ('Secret For The Mad') 64-bit Writing library                : libebml v1.4.1   libmatroska v1.6.2 Cover                          : Yes Attachments                    : cover.png  Video ID                             : 1 Format                         : AVC Format/Info                    : Advanced Video Codec Format profile                 : [email protected] Format settings                : CABAC / 3 Ref Frames Format settings, CABAC         : Yes Format settings, Reference fra : 3 frames Format settings, GOP           : M=1, N=24 Codec ID                       : V_MPEG4/ISO/AVC Duration                       : 46 min 2 s Bit rate mode                  : Constant Bit rate                       : 4 755 kb/s Width                          : 1 920 pixels Height                         : 1 080 pixels Display aspect ratio           : 16:9 Frame rate mode                : Constant Frame rate                     : 29.970 (29970/1000) FPS Original frame rate            : 29.970 (30000/1001) FPS Color space                    : YUV Chroma subsampling             : 4:2:0 Bit depth                      : 8 bits Scan type                      : Progressive Bits/(Pixel*Frame)             : 0.077 Stream size                    : 1.52 GiB (97%) Default                        : Yes Forced                         : No Color range                    : Limited Color primaries                : BT.709 Transfer characteristics       : BT.709 Matrix coefficients            : BT.709  Audio ID                             : 2 Format                         : AAC LC Format/Info                    : Advanced Audio Codec Low Complexity Codec ID                       : A_AAC-2 Duration                       : 46 min 3 s Bit rate                       : 125 kb/s Channel(s)                     : 2 channels Channel layout                 : L R Sampling rate                  : 48.0 kHz Frame rate                     : 46.875 FPS (1024 SPF) Compression mode               : Lossy Stream size                    : 41.3 MiB (3%) Language                       : Japanese Default                        : Yes Forced                         : No

  • BT列表

BT链接信息: [MagicStar] Voice 2 110紧急指令室 / ボイスII 110緊急指令室 EP02 [WEBDL] [1080p] [HULU]【生】【附日字】

Magnet链接: magnet:?xt=urn:btih:YSQFBGN7RPTYSSPH7IZ67OFRWMP5KOZ2

Magnet链接typeII: magnet:?xt=urn:btih:c4a05099bf8be78949e7fa33efb8b1b31fd53b3a

PikPak載點: 發送到PikPak bot

弹幕播放链接: ddplay:magnet:?xt=urn:btih:YSQFBGN7RPTYSSPH7IZ67OFRWMP5KOZ2 


天空动漫 » 魔星字幕团[MagicStar] Voice 2 110紧急指令室 / ボイスII 110緊急指令室 EP02 [WEBDL] [1080p] [HULU]【生】【附日字】

提供最优质的资源集合

立即查看 了解详情