魔星字幕团【2021冬日影】初恋 / ファーストラヴ [WEBDL] [1080p] [AMZN]【生】【附日字】

  • 所属分类:
    日剧
  • 发布时间: 2021/07/04 19:19
  • 种子下载: 下载种子/磁力链接
  • 文件大小: 2.6GB

簡介: 

HD 1080p from Prime Video.
alt text
alt text

General Unique ID                      : 119320128467587258257927648886625555525 (0x59C43888DD4CC89E0191BD90273E5445) Complete name                  : First.Love.2021.1080p.AMZN.WEB-DL.DDP5.1.H.264-MagicStar.mkv Format                         : Matroska Format version                 : Version 4 File size                      : 2.57 GiB Duration                       : 1 h 59 min Overall bit rate               : 3 090 kb/s Encoded date                   : UTC 2021-07-04 11:05:54 Writing application            : mkvmerge v52.0.0 ('Secret For The Mad') 64-bit Writing library                : libebml v1.4.1   libmatroska v1.6.2  Video ID                             : 1 Format                         : AVC Format/Info                    : Advanced Video Codec Format profile                 : [email protected] Format settings                : CABAC / 4 Ref Frames Format settings, CABAC         : Yes Format settings, Reference fra : 4 frames Codec ID                       : V_MPEG4/ISO/AVC Duration                       : 1 h 59 min Bit rate                       : 2 448 kb/s Width                          : 1 920 pixels Height                         : 800 pixels Display aspect ratio           : 2.40:1 Frame rate mode                : Constant Frame rate                     : 23.976 (24000/1001) FPS Color space                    : YUV Chroma subsampling             : 4:2:0 Bit depth                      : 8 bits Scan type                      : Progressive Bits/(Pixel*Frame)             : 0.066 Stream size                    : 2.04 GiB (79%) Default                        : Yes Forced                         : No Color range                    : Limited Color primaries                : BT.709 Transfer characteristics       : BT.709 Matrix coefficients            : BT.709  Audio ID                             : 2 Format                         : E-AC-3 Format/Info                    : Enhanced AC-3 Commercial name                : Dolby Digital Plus Codec ID                       : A_EAC3 Duration                       : 1 h 59 min Bit rate mode                  : Constant Bit rate                       : 640 kb/s Channel(s)                     : 6 channels Channel layout                 : L R C LFE Ls Rs Sampling rate                  : 48.0 kHz Frame rate                     : 31.250 FPS (1536 SPF) Compression mode               : Lossy Stream size                    : 546 MiB (21%) Language                       : Japanese Service kind                   : Complete Main Default                        : Yes Forced                         : No

  • BT列表

BT链接信息: 【2021冬日影】初恋 / ファーストラヴ [WEBDL] [1080p] [AMZN]【生】【附日字】

Magnet链接: magnet:?xt=urn:btih:KC5XTWXFW24JF5APXHBJGCZFWR4D2TDR

Magnet链接typeII: magnet:?xt=urn:btih:50bb79dae5b6b892f40fb9c2930b25b4783d4c71

弹幕播放链接: ddplay:magnet:?xt=urn:btih:KC5XTWXFW24JF5APXHBJGCZFWR4D2TDR 


天空动漫 » 魔星字幕团【2021冬日影】初恋 / ファーストラヴ [WEBDL] [1080p] [AMZN]【生】【附日字】

提供最优质的资源集合

立即查看 了解详情