魔星字幕团【日影】怪谈雪女郎 / 怪談雪女郎 [WEBDL] [1080p] [AMZN]【生】

  • 所属分类:
    日剧
  • 发布时间: 2021/07/04 18:33
  • 种子下载: 下载种子/磁力链接
  • 文件大小: 3.8GB

簡介: 

HD 1080p from Prime Video.
alt text
alt text

General Unique ID                      : 199879509002703560569394957015292767760 (0x965F64A68316BDB279D06A045056EE10) Complete name                  : Kaidan.Yukijyorou.1968.1080p.AMZN.WEB-DL.DDP2.0.H.264-MagicStar.mkv Format                         : Matroska Format version                 : Version 4 File size                      : 3.78 GiB Duration                       : 1 h 19 min Overall bit rate               : 6 814 kb/s Encoded date                   : UTC 2021-07-03 23:50:05 Writing application            : mkvmerge v50.0.0 ('Awakenings') 64-bit Writing library                : libebml v1.4.0   libmatroska v1.6.2  Video ID                             : 1 Format                         : AVC Format/Info                    : Advanced Video Codec Format profile                 : [email protected] Format settings                : CABAC / 4 Ref Frames Format settings, CABAC         : Yes Format settings, Reference fra : 4 frames Codec ID                       : V_MPEG4/ISO/AVC Duration                       : 1 h 19 min Bit rate                       : 6 588 kb/s Width                          : 1 920 pixels Height                         : 816 pixels Display aspect ratio           : 2.35:1 Frame rate mode                : Constant Frame rate                     : 23.976 (24000/1001) FPS Color space                    : YUV Chroma subsampling             : 4:2:0 Bit depth                      : 8 bits Scan type                      : Progressive Bits/(Pixel*Frame)             : 0.175 Stream size                    : 3.65 GiB (97%) Default                        : Yes Forced                         : No Color range                    : Limited Color primaries                : BT.709 Transfer characteristics       : BT.709 Matrix coefficients            : BT.709  Audio ID                             : 2 Format                         : E-AC-3 Format/Info                    : Enhanced AC-3 Commercial name                : Dolby Digital Plus Codec ID                       : A_EAC3 Duration                       : 1 h 19 min Bit rate mode                  : Constant Bit rate                       : 224 kb/s Channel(s)                     : 2 channels Channel layout                 : L R Sampling rate                  : 48.0 kHz Frame rate                     : 31.250 FPS (1536 SPF) Compression mode               : Lossy Stream size                    : 127 MiB (3%) Language                       : Japanese Service kind                   : Complete Main Default                        : Yes Forced                         : No

  • BT列表

BT链接信息: 【日影】怪谈雪女郎 / 怪談雪女郎 [WEBDL] [1080p] [AMZN]【生】

Magnet链接: magnet:?xt=urn:btih:RBV5JUHBGV6BR6G65WSN3536OR5EMTEQ

Magnet链接typeII: magnet:?xt=urn:btih:886bd4d0e1357c18f8deeda4ddf77e747a464c90

弹幕播放链接: ddplay:magnet:?xt=urn:btih:RBV5JUHBGV6BR6G65WSN3536OR5EMTEQ 


天空动漫 » 魔星字幕团【日影】怪谈雪女郎 / 怪談雪女郎 [WEBDL] [1080p] [AMZN]【生】

提供最优质的资源集合

立即查看 了解详情