魔星字幕团[MagicStar] 爱情幻影 / ラブファントム EP03 [WEBDL] [1080p] [HULU]【生】

  • 所属分类:
    日剧
  • 发布时间: 2021/05/29 21:10
  • 种子下载: 下载种子/磁力链接
  • 文件大小: 497.3MB

簡介: 

HD 1080p from HULU JAPAN.
alt text
alt text

General Unique ID                      : 110272740331843158677195992843058107559 (0x52F5C1DC266AFBF91EF6258F023354A7) Complete name                  : Love.Phantom.EP03.1080p.HULU.WEB-DL.AAC2.0.H.264-MagicStar.mkv Format                         : Matroska Format version                 : Version 4 File size                      : 497 MiB Duration                       : 24 min 0 s Overall bit rate               : 2 897 kb/s Encoded date                   : UTC 2021-05-28 19:57:47 Writing application            : mkvmerge v50.0.0 ('Awakenings') 64-bit Writing library                : libebml v1.4.0   libmatroska v1.6.2 Cover                          : Yes Attachments                    : cover.png  Video ID                             : 1 Format                         : AVC Format/Info                    : Advanced Video Codec Format profile                 : [email protected] Format settings                : CABAC / 4 Ref Frames Format settings, CABAC         : Yes Format settings, Reference fra : 4 frames Codec ID                       : V_MPEG4/ISO/AVC Duration                       : 24 min 0 s Bit rate                       : 2 769 kb/s Width                          : 1 920 pixels Height                         : 1 080 pixels Display aspect ratio           : 16:9 Frame rate mode                : Constant Frame rate                     : 23.976 (24000/1001) FPS Color space                    : YUV Chroma subsampling             : 4:2:0 Bit depth                      : 8 bits Scan type                      : Progressive Bits/(Pixel*Frame)             : 0.056 Stream size                    : 475 MiB (96%) Default                        : Yes Forced                         : No Color range                    : Limited Color primaries                : BT.709 Transfer characteristics       : BT.709 Matrix coefficients            : BT.709  Audio ID                             : 2 Format                         : AAC LC Format/Info                    : Advanced Audio Codec Low Complexity Codec ID                       : A_AAC-2 Duration                       : 24 min 0 s Bit rate                       : 125 kb/s Channel(s)                     : 2 channels Channel layout                 : L R Sampling rate                  : 48.0 kHz Frame rate                     : 46.875 FPS (1024 SPF) Compression mode               : Lossy Stream size                    : 21.5 MiB (4%) Language                       : Japanese Default                        : Yes Forced                         : No

  • BT列表

BT链接信息: [MagicStar] 爱情幻影 / ラブファントム EP03 [WEBDL] [1080p] [HULU]【生】

Magnet链接: magnet:?xt=urn:btih:RAAQQHDKL7XX2W6ZZUQZJNKN3CG2ROIO

Magnet链接typeII: magnet:?xt=urn:btih:8801081c6a5fef7d5bd9cd2194b54dd88da8b90e

弹幕播放链接: ddplay:magnet:?xt=urn:btih:RAAQQHDKL7XX2W6ZZUQZJNKN3CG2ROIO 


天空动漫 » 魔星字幕团[MagicStar] 爱情幻影 / ラブファントム EP03 [WEBDL] [1080p] [HULU]【生】

提供最优质的资源集合

立即查看 了解详情