魔星字幕团[MagicStar] Colorful Love ~无性别男孩热恋中。~ / カラフラブル ~ジェンダーレス男子に愛されています。~ EP04 [WEBDL] [1080p] [HULU]【生】

  • 所属分类:
    日剧
  • 发布时间: 2021/04/23 20:10
  • 种子下载: 下载种子/磁力链接
  • 文件大小: 1.2GB

簡介: 

HD 1080p from HULU JAPAN.
alt text
alt text

General Unique ID                      : 244589996398562835354301550171370413674 (0xB80251DF78BA0A00BFC2B81A3CA5DE6A) Complete name                  : Colorful.Love.Genderless.Danshi.ni.Aisareteimasu.EP04.1080p.HULU.WEB-DL.AAC2.0.H.264-MagicStar.mkv Format                         : Matroska Format version                 : Version 4 File size                      : 1.22 GiB Duration                       : 43 min 7 s Overall bit rate               : 4 061 kb/s Encoded date                   : UTC 2021-04-23 00:05:44 Writing application            : mkvmerge v50.0.0 ('Awakenings') 64-bit Writing library                : libebml v1.4.0   libmatroska v1.6.2 Cover                          : Yes Attachments                    : cover.png  Video ID                             : 1 Format                         : AVC Format/Info                    : Advanced Video Codec Format profile                 : [email protected] Format settings                : CABAC / 4 Ref Frames Format settings, CABAC         : Yes Format settings, Reference fra : 4 frames Codec ID                       : V_MPEG4/ISO/AVC Duration                       : 43 min 7 s Bit rate                       : 3 932 kb/s Width                          : 1 920 pixels Height                         : 1 080 pixels Display aspect ratio           : 16:9 Frame rate mode                : Constant Frame rate                     : 29.970 (29970/1000) FPS Original frame rate            : 29.970 (30000/1001) FPS Color space                    : YUV Chroma subsampling             : 4:2:0 Bit depth                      : 8 bits Scan type                      : Progressive Bits/(Pixel*Frame)             : 0.063 Stream size                    : 1.18 GiB (97%) Default                        : Yes Forced                         : No Color range                    : Limited Color primaries                : BT.709 Transfer characteristics       : BT.709 Matrix coefficients            : BT.709  Audio ID                             : 2 Format                         : AAC LC Format/Info                    : Advanced Audio Codec Low Complexity Codec ID                       : A_AAC-2 Duration                       : 43 min 7 s Bit rate                       : 125 kb/s Channel(s)                     : 2 channels Channel layout                 : L R Sampling rate                  : 48.0 kHz Frame rate                     : 46.875 FPS (1024 SPF) Compression mode               : Lossy Stream size                    : 38.7 MiB (3%) Language                       : Japanese Default                        : Yes Forced                         : No

  • BT列表

BT链接信息: [MagicStar] Colorful Love ~无性别男孩热恋中。~ / カラフラブル ~ジェンダーレス男子に愛されています。~ EP04 [WEBDL] [1080p] [HULU]【生】

Magnet链接: magnet:?xt=urn:btih:NVFO36LTFNCS3CVJE3MPL66QQKJIRHPZ

Magnet链接typeII: magnet:?xt=urn:btih:6d4aedf9732b452d8aa926d8f5fbd08292889df9

弹幕播放链接: ddplay:magnet:?xt=urn:btih:NVFO36LTFNCS3CVJE3MPL66QQKJIRHPZ 


天空动漫 » 魔星字幕团[MagicStar] Colorful Love ~无性别男孩热恋中。~ / カラフラブル ~ジェンダーレス男子に愛されています。~ EP04 [WEBDL] [1080p] [HULU]【生】

提供最优质的资源集合

立即查看 了解详情