魔星字幕团[MagicStar] 摇曳露营 第二季 / ゆるキャン△2 EP01 [WEBDL] [1080p] [AMZN]【生】

  • 所属分类:
    日剧
  • 发布时间: 2021/04/03 16:44
  • 种子下载: 下载种子/磁力链接
  • 文件大小: 1.1GB

簡介: 

HD 1080p from Prime Video.
alt text
alt text

General Unique ID                      : 232850186735092761252768073587857296545 (0xAF2D50916B6CE8D48DD14711D9A80CA1) Complete name                  : Yuru.Camp△.S02EP01.1080p.AMZN.WEB-DL.DDP2.0.H.264-MagicStar.mkv Format                         : Matroska Format version                 : Version 4 File size                      : 1.06 GiB Duration                       : 24 min 0 s Overall bit rate               : 6 332 kb/s Encoded date                   : UTC 2021-04-03 08:08:26 Writing application            : mkvmerge v52.0.0 ('Secret For The Mad') 64-bit Writing library                : libebml v1.4.1   libmatroska v1.6.2 Cover                          : Yes Attachments                    : cover.png  Video ID                             : 1 Format                         : AVC Format/Info                    : Advanced Video Codec Format profile                 : [email protected] Format settings                : CABAC / 4 Ref Frames Format settings, CABAC         : Yes Format settings, Reference fra : 4 frames Codec ID                       : V_MPEG4/ISO/AVC Duration                       : 24 min 0 s Bit rate                       : 6 104 kb/s Width                          : 1 920 pixels Height                         : 1 080 pixels Display aspect ratio           : 16:9 Frame rate mode                : Constant Frame rate                     : 29.970 (29970/1000) FPS Original frame rate            : 29.970 (30000/1001) FPS Color space                    : YUV Chroma subsampling             : 4:2:0 Bit depth                      : 8 bits Scan type                      : Progressive Bits/(Pixel*Frame)             : 0.098 Stream size                    : 1.02 GiB (96%) Default                        : Yes Forced                         : No Color range                    : Limited Color primaries                : BT.709 Transfer characteristics       : BT.709 Matrix coefficients            : BT.709  Audio ID                             : 2 Format                         : E-AC-3 Format/Info                    : Enhanced AC-3 Commercial name                : Dolby Digital Plus Codec ID                       : A_EAC3 Duration                       : 24 min 0 s Bit rate mode                  : Constant Bit rate                       : 224 kb/s Channel(s)                     : 2 channels Channel layout                 : L R Sampling rate                  : 48.0 kHz Frame rate                     : 31.250 FPS (1536 SPF) Compression mode               : Lossy Stream size                    : 38.5 MiB (4%) Language                       : Japanese Service kind                   : Complete Main Default                        : Yes Forced                         : No

  • BT列表

BT链接信息: [MagicStar] 摇曳露营 第二季 / ゆるキャン△2 EP01 [WEBDL] [1080p] [AMZN]【生】

Magnet链接: magnet:?xt=urn:btih:WY2BQPPEN3ASSOTMU5ETT2LY2SK3E3P7

Magnet链接typeII: magnet:?xt=urn:btih:b634183de46ec1293a6ca74939e978d495b26dff

弹幕播放链接: ddplay:magnet:?xt=urn:btih:WY2BQPPEN3ASSOTMU5ETT2LY2SK3E3P7 


天空动漫 » 魔星字幕团[MagicStar] 摇曳露营 第二季 / ゆるキャン△2 EP01 [WEBDL] [1080p] [AMZN]【生】

提供最优质的资源集合

立即查看 了解详情