魔星字幕团【日影】[MagicStar] 蓝色圣诞节 / ブルークリスマス 1978 [WEBDL] [1080p] [AMZN]【生】

  • 所属分类:
    日剧
  • 发布时间: 2021/03/14 23:18
  • 种子下载: 下载种子/磁力链接
  • 文件大小: 6.4GB

簡介: 

HD 1080p from Prime Video.
alt text
alt text

General Unique ID                      : 59054324670500403033855783815340228362 (0x2C6D730044C1E5C88D204F493BA5FF0A) Complete name                  : Blue.Christmas.1978.1080p.AMZN.WEB-DL.DDP2.0.H.264-MagicStar.mkv Format                         : Matroska Format version                 : Version 4 File size                      : 6.45 GiB Duration                       : 2 h 12 min Overall bit rate mode          : Variable Overall bit rate               : 6 964 kb/s Encoded date                   : UTC 2021-03-13 23:15:18 Writing application            : mkvmerge v50.0.0 ('Awakenings') 64-bit Writing library                : libebml v1.4.0   libmatroska v1.6.2 Cover                          : Yes Attachments                    : cover.png  Video ID                             : 1 Format                         : AVC Format/Info                    : Advanced Video Codec Format profile                 : [email protected] Format settings                : CABAC / 4 Ref Frames Format settings, CABAC         : Yes Format settings, Reference fra : 4 frames Codec ID                       : V_MPEG4/ISO/AVC Duration                       : 2 h 12 min Bit rate mode                  : Variable Bit rate                       : 6 738 kb/s Maximum bit rate               : 15.0 Mb/s Width                          : 1 440 pixels Height                         : 1 080 pixels Display aspect ratio           : 4:3 Frame rate mode                : Constant Frame rate                     : 23.976 (24000/1001) FPS Color space                    : YUV Chroma subsampling             : 4:2:0 Bit depth                      : 8 bits Scan type                      : Progressive Bits/(Pixel*Frame)             : 0.181 Stream size                    : 6.24 GiB (97%) Default                        : Yes Forced                         : No Color range                    : Limited Color primaries                : BT.709 Transfer characteristics       : BT.709 Matrix coefficients            : BT.709  Audio ID                             : 2 Format                         : E-AC-3 Format/Info                    : Enhanced AC-3 Commercial name                : Dolby Digital Plus Codec ID                       : A_EAC3 Duration                       : 2 h 12 min Bit rate mode                  : Constant Bit rate                       : 224 kb/s Channel(s)                     : 2 channels Channel layout                 : L R Sampling rate                  : 48.0 kHz Frame rate                     : 31.250 FPS (1536 SPF) Compression mode               : Lossy Stream size                    : 212 MiB (3%) Language                       : Japanese Service kind                   : Complete Main Default                        : Yes Forced                         : No

  • BT列表

BT链接信息: 【日影】[MagicStar] 蓝色圣诞节 / ブルークリスマス 1978 [WEBDL] [1080p] [AMZN]【生】

Magnet链接: magnet:?xt=urn:btih:VILN5KE725XXNMF4IFL5SOLPOHB7S4RA

Magnet链接typeII: magnet:?xt=urn:btih:aa16dea89fd76f76b0bc4157d9396f71c3f97220

弹幕播放链接: ddplay:magnet:?xt=urn:btih:VILN5KE725XXNMF4IFL5SOLPOHB7S4RA 


天空动漫 » 魔星字幕团【日影】[MagicStar] 蓝色圣诞节 / ブルークリスマス 1978 [WEBDL] [1080p] [AMZN]【生】

提供最优质的资源集合

立即查看 了解详情