魔星字幕团【日影】[MagicStar] 麻辣教师 电影版 / GTO 1999 [WEBDL] [1080p] [AMZN]【生】

  • 所属分类:
    日剧
  • 发布时间: 2021/02/06 0:49
  • 种子下载: 下载种子/磁力链接
  • 文件大小: 9.8GB

簡介: 

HD 1080p from Prime Video.
alt text
alt text

General Unique ID                      : 189448143115504193849819748666521014449 (0x8E86629ABA84696F34FBF6679259D0B1) Complete name                  : GTO.1999.1080p.WEB-DL.DDP2.0.H.264-MagicStar.mkv Format                         : Matroska Format version                 : Version 4 File size                      : 9.77 GiB Duration                       : 1 h 48 min Overall bit rate               : 12.9 Mb/s Encoded date                   : UTC 2021-02-02 18:38:28 Writing application            : mkvmerge v52.0.0 ('Secret For The Mad') 64-bit Writing library                : libebml v1.4.1   libmatroska v1.6.2 Cover                          : Yes Attachments                    : cover.png  Video ID                             : 1 Format                         : AVC Format/Info                    : Advanced Video Codec Format profile                 : [email protected] Format settings                : CABAC / 4 Ref Frames Format settings, CABAC         : Yes Format settings, Reference fra : 4 frames Codec ID                       : V_MPEG4/ISO/AVC Duration                       : 1 h 48 min Bit rate                       : 12.7 Mb/s Width                          : 1 920 pixels Height                         : 1 040 pixels Display aspect ratio           : 1.85:1 Frame rate mode                : Constant Frame rate                     : 23.976 (24000/1001) FPS Color space                    : YUV Chroma subsampling             : 4:2:0 Bit depth                      : 8 bits Scan type                      : Progressive Bits/(Pixel*Frame)             : 0.265 Stream size                    : 9.60 GiB (98%) Default                        : Yes Forced                         : No Color range                    : Limited Color primaries                : BT.709 Transfer characteristics       : BT.709 Matrix coefficients            : BT.709  Audio ID                             : 2 Format                         : E-AC-3 Format/Info                    : Enhanced AC-3 Commercial name                : Dolby Digital Plus Codec ID                       : A_EAC3 Duration                       : 1 h 48 min Bit rate mode                  : Constant Bit rate                       : 224 kb/s Channel(s)                     : 2 channels Channel layout                 : L R Sampling rate                  : 48.0 kHz Frame rate                     : 31.250 FPS (1536 SPF) Compression mode               : Lossy Stream size                    : 173 MiB (2%) Language                       : Japanese Service kind                   : Complete Main Default                        : Yes Forced                         : No

  • BT列表

BT链接信息: 【日影】[MagicStar] 麻辣教师 电影版 / GTO 1999 [WEBDL] [1080p] [AMZN]【生】

Magnet链接: magnet:?xt=urn:btih:6SPLO2CAGR5G4VR5W7NYKCXZ7IMPTYTU

Magnet链接typeII: magnet:?xt=urn:btih:f49eb76840347a6e563db7db850af9fa18f9e274

弹幕播放链接: ddplay:magnet:?xt=urn:btih:6SPLO2CAGR5G4VR5W7NYKCXZ7IMPTYTU 


天空动漫 » 魔星字幕团【日影】[MagicStar] 麻辣教师 电影版 / GTO 1999 [WEBDL] [1080p] [AMZN]【生】

提供最优质的资源集合

立即查看 了解详情